Классический форум-трекер
canvas not supported
Нас вместе: 4 076 608

Счастливого нового дня смерти / Happy Death Day 2U (2019) BDRip [H.264/1080p] [EN / EN, Fr, Sp Sub]


 
 
RSS
Начать новую тему   Ответить на тему    Торрент-трекер NNM-Club -> Зарубежное кино -> Фильмы в оригинале (HD, UHD, UHD-LQ)
Автор Сообщение
smaster67 ®
Модератор Видео
Покровитель талантов Uploader 300+
Стаж: 10 лет 1 мес.
Сообщений: 7118
Ratio: 225,602
Поблагодарили: 215231
100%
Счастливого нового дня смерти / Happy Death Day 2U (2019) BDRip [H.264/1080p] [EN / EN, Fr, Sp Sub]

Производство: США, Blumhouse Productions, Dentsu, Digital Riot Media
Жанр: ужасы, фантастика, детектив, комедия

Режиссер: Кристофер Лэндон
Актеры: Джессика Рот, Израэль Бруссар, Фи Ву, Сурадж Шарма, Сара Яркин, Рэйчел Мэттьюз, Руби Модин, Стив Зиссис, Чарльз Эйткин, Лаура Клифтон, Мисси Ягер, Джейсон Бэйл

Описание:
На прошлый день рождения судьба преподнесла Три сомнительный подарок - праздник повторялся снова и снова, а в финале её неизменно убивал маньяк в маске. То ли дело в этом году: какое счастье проснуться с утра пораньше и оказаться мало того, что в том же самом дне, так ещё и в параллельной реальности - и всё это из-за маленького научного проекта Райана!
Смертельная тоска? Нет, бесконечное веселье!



Продолжительность: 01:39:56
Качество видео: BDRip 1080p
Перевод: Отсутствует
Язык озвучки: Английский
Субтитры: английские, испанские, французские

Видео: AVC/H.264, 1920x802, 20222 kbps
Аудио: английский, AC3, 5.1, 640 kbps
Код: выделить все
General
Unique ID                                : 173908234459935640764451090656584739654 (0x82D581F42EE91E8DE30589E588AB2B46)
Complete name                            : Happy.Death.Day.2U.2019.1080p.BluRay.DD5.1-iFT.mkv
Format                                   : Matroska
Format version                           : Version 4 / Version 2
File size                                : 14.6 GiB
Duration                                 : 1 h 39 min
Overall bit rate                         : 20.9 Mb/s
Encoded date                             : UTC 2019-05-07 20:15:37
Writing application                      : mkvmerge v33.1.0 ('Primrose') 64-bit
Writing library                          : libebml v1.3.7 + libmatroska v1.5.0

Video
ID                                       : 1
Format                                   : AVC
Format/Info                              : Advanced Video Codec
Format profile                           : High@L4.1
Format settings, CABAC                   : Yes
Format settings, ReFrames                : 5 frames
Codec ID                                 : V_MPEG4/ISO/AVC
Duration                                 : 1 h 39 min
Bit rate                                 : 20.2 Mb/s
Width                                    : 1 920 pixels
Height                                   : 802 pixels
Display aspect ratio                     : 2.40:1
Frame rate mode                          : Constant
Frame rate                               : 23.976 (24000/1001) FPS
Color space                              : YUV
Chroma subsampling                       : 4:2:0
Bit depth                                : 8 bits
Scan type                                : Progressive
Bits/(Pixel*Frame)                       : 0.548
Stream size                              : 14.1 GiB (97%)
Writing library                          : x264 core 155 r2867+74 66b5600 t_mod_Custom_2 [8-bit@all X86_64]
Encoding settings                        : cabac=1 / ref=5 / deblock=1:-3:-3 / analyse=0x3:0x113 / me=umh / subme=11 / psy=1 / fade_compensate=0.00 / psy_rd=1.00:0.00 / mixed_ref=1 / me_range=32 / chroma_me=1 / trellis=2 / 8x8dct=1 / cqm=0 / deadzone=21,11 / fast_pskip=0 / chroma_qp_offset=-2 / threads=18 / lookahead_threads=3 / sliced_threads=0 / nr=0 / decimate=0 / interlaced=0 / bluray_compat=0 / constrained_intra=0 / fgo=0 / bframes=8 / b_pyramid=2 / b_adapt=2 / b_bias=0 / direct=3 / weightb=1 / open_gop=0 / weightp=2 / keyint=250 / keyint_min=23 / scenecut=40 / intra_refresh=0 / rc_lookahead=60 / rc=crf / mbtree=0 / crf=17.0000 / qcomp=0.60 / qpmin=0:0:0 / qpmax=69:69:69 / qpstep=4 / vbv_maxrate=62500 / vbv_bufsize=78125 / crf_max=0.0 / nal_hrd=none / filler=0 / ip_ratio=1.30 / pb_ratio=1.20 / aq=3:0.80 / aq-sensitivity=10.00 / aq-factor=1.00:1.00:1.00 / aq2=0 / aq3=0 / zones=8897,11081,crf=15.3/17001,18897,crf=15.2/27561,30465,crf=14.8/34857,35217,crf=13.5/56682,60426,crf=14.5/69570,69954,crf=14/75450,78234,crf=15.9/88458,89994,crf=15
Language                                 : English
Default                                  : Yes
Forced                                   : No
Color range                              : Limited
Color primaries                          : BT.709
Transfer characteristics                 : BT.709
Matrix coefficients                      : BT.709

Audio
ID                                       : 2
Format                                   : AC-3
Format/Info                              : Audio Coding 3
Mode extension                           : CM (complete main)
Format settings, Endianness              : Big
Codec ID                                 : A_AC3
Duration                                 : 1 h 39 min
Bit rate mode                            : Constant
Bit rate                                 : 640 kb/s
Channel(s)                               : 6 channels
Channel positions                        : Front: L C R, Side: L R, LFE
Sampling rate                            : 48.0 kHz
Frame rate                               : 31.250 FPS (1536 spf)
Compression mode                         : Lossy
Stream size                              : 457 MiB (3%)
Language                                 : English
Default                                  : Yes
Forced                                   : No

Text #1
ID                                       : 3
Format                                   : PGS
Muxing mode                              : zlib
Codec ID                                 : S_HDMV/PGS
Codec ID/Info                            : Picture based subtitle format used on BDs/HD-DVDs
Duration                                 : 1 h 34 min
Bit rate                                 : 46.5 kb/s
Count of elements                        : 3190
Stream size                              : 31.3 MiB (0%)
Title                                    : SDH
Language                                 : English
Default                                  : Yes
Forced                                   : No

Text #2
ID                                       : 4
Format                                   : PGS
Muxing mode                              : zlib
Codec ID                                 : S_HDMV/PGS
Codec ID/Info                            : Picture based subtitle format used on BDs/HD-DVDs
Duration                                 : 1 h 38 min
Bit rate                                 : 33.3 kb/s
Count of elements                        : 2530
Stream size                              : 23.5 MiB (0%)
Language                                 : Spanish
Default                                  : No
Forced                                   : No

Text #3
ID                                       : 5
Format                                   : PGS
Muxing mode                              : zlib
Codec ID                                 : S_HDMV/PGS
Codec ID/Info                            : Picture based subtitle format used on BDs/HD-DVDs
Duration                                 : 1 h 38 min
Bit rate                                 : 30.2 kb/s
Count of elements                        : 2577
Stream size                              : 21.3 MiB (0%)
Language                                 : French
Default                                  : No
Forced                                   : No

Text #4
ID                                       : 6
Format                                   : PGS
Muxing mode                              : zlib
Codec ID                                 : S_HDMV/PGS
Codec ID/Info                            : Picture based subtitle format used on BDs/HD-DVDs
Duration                                 : 1 h 38 min
Bit rate                                 : 830 b/s
Count of elements                        : 64
Stream size                              : 596 KiB (0%)
Language                                 : French
Default                                  : No
Forced                                   : No

Text #5
ID                                       : 7
Format                                   : PGS
Muxing mode                              : zlib
Codec ID                                 : S_HDMV/PGS
Codec ID/Info                            : Picture based subtitle format used on BDs/HD-DVDs
Duration                                 : 1 h 36 min
Bit rate                                 : 554 b/s
Count of elements                        : 44
Stream size                              : 393 KiB (0%)
Language                                 : Spanish
Default                                  : No
Forced                                   : No

Menu
00:00:00.000                             : en:Chapter 01
00:07:42.253                             : en:Chapter 02
00:16:01.085                             : en:Chapter 03
00:21:16.066                             : en:Chapter 04
00:24:21.460                             : en:Chapter 05
00:28:44.889                             : en:Chapter 06
00:32:34.661                             : en:Chapter 07
00:37:15.816                             : en:Chapter 08
00:42:02.811                             : en:Chapter 09
00:45:35.107                             : en:Chapter 10
00:48:37.664                             : en:Chapter 11
00:54:27.347                             : en:Chapter 12
01:00:36.341                             : en:Chapter 13
01:06:24.313                             : en:Chapter 14
01:13:19.520                             : en:Chapter 15
01:17:47.079                             : en:Chapter 16
01:21:31.761                             : en:Chapter 17
01:27:36.084                             : en:Chapter 18
01:33:02.994                             : en:Chapter 19
01:35:05.700                             : en:Chapter 20

Скриншоты:



Все одноименные релизы в Клубе

Время раздачи: с 13:00 до 23:00
[NNM-Club.me]_Happy.Death.Day.2U.2019.1080p.BluRay.DD5.1-iFT.mkv.torrent
 Торрент: Платиновая раздача  Зарегистрирован
 
Скачать


Примагнититься
 Зарегистрирован:   08 Май 2019 23:25:28
 Размер:   14,6 GB  (
 Рейтинг:    (Голосов: 6)
 Поблагодарили:   24
 Проверка:   Оформление проверено модератором 08 Май 2019 23:28:36
Как cкачать  ·  Как раздать  ·  Правильно оформить  ·  Поднять ратио!  
Показать сообщения:   
Начать новую тему   Ответить на тему    Торрент-трекер NNM-Club -> Зарубежное кино -> Фильмы в оригинале (HD, UHD, UHD-LQ) Часовой пояс: GMT + 3
Страница 1 из 1