Классический форум-трекер
canvas not supported
Нас вместе: 4 079 122

Омен: Перерождение / The Prodigy (2019) BDRemux [H.264/1080p] [EN / EN, Fr, Sp Sub]


 
 
RSS
Начать новую тему   Ответить на тему    Торрент-трекер NNM-Club -> Зарубежное кино -> Фильмы в оригинале (HD, UHD, UHD-LQ)
Автор Сообщение
smaster67 ®
Модератор Видео
Покровитель талантов Uploader 300+
Стаж: 10 лет 3 мес.
Сообщений: 7117
Ratio: 225,468
Поблагодарили: 215360
100%
Омен: Перерождение / The Prodigy (2019) BDRemux [H.264/1080p] [EN / EN, Fr, Sp Sub]

Производство: США, Orion Pictures, Vinson Films, XYZ Films, Metro-Goldwyn-Mayer (MGM),
Жанр: ужасы, триллер

Режиссер: Николас МакКарти
Актеры: Тейлор Шиллинг, Джексон Роберт Скотт, Колм Фиор, Питер Муни, Пол Фото, Бриттани Аллен, Паула Бодро, Элиза Мулчерри, Олунике Аделийи, Джанет Лэнд, Мартин Роуч, Байрон Абалос

Описание:
У молодой пары рождается долгожданный ребёнок. Вскоре малыш Майлс начинает демонстрировать все признаки вундеркинда, и его определяют в специализированную школу для одарённых детей. Но по достижении восьмилетнего возраста поведение мальчика становится асоциальным и пугающим, и родительская гордость сменяется опасением даже за собственную жизнь - мать Майлса начинает считать, что её сыном управляет нечто злобное.



Продолжительность: 01:31:46
Качество видео: BDRemux
Перевод: Отсутствует
Язык озвучки: Английский
Субтитры: английские, испанские, французские

Видео: AVC/H.264, 1920x1080, 31627 kbps
Аудио №1: английский, DTS-HD MA, 5.1, 3366 kbps
Аудио №2: английский, AC3, 2.0, 224 kbps
Код: выделить все
General
Unique ID                                : 103746832394137905949816600288406359080 (0x4E0CE9C1DC2B49A9FEC84AEA84454C28)
Complete name                            : The.Prodigy.2019.1080p.BluRay.REMUX.AVC.DTS-HD.MA5.1-iFT\The.Prodigy.2019.1080p.BluRay.REMUX.AVC.DTS-HD.MA5.1-iFT.mkv
Format                                   : Matroska
Format version                           : Version 4 / Version 2
File size                                : 22.6 GiB
Duration                                 : 1 h 31 min
Overall bit rate mode                    : Variable
Overall bit rate                         : 35.3 Mb/s
Encoded date                             : UTC 2019-05-08 09:28:10
Writing application                      : mkvmerge v22.0.0 ('At The End Of The World') 64-bit
Writing library                          : libebml v1.3.5 + libmatroska v1.4.8

Video
ID                                       : 1
Format                                   : AVC
Format/Info                              : Advanced Video Codec
Format profile                           : High@L4.1
Format settings, CABAC                   : Yes
Format settings, ReFrames                : 4 frames
Codec ID                                 : V_MPEG4/ISO/AVC
Duration                                 : 1 h 31 min
Bit rate mode                            : Variable
Bit rate                                 : 31.6 Mb/s
Maximum bit rate                         : 37.5 Mb/s
Width                                    : 1 920 pixels
Height                                   : 1 080 pixels
Display aspect ratio                     : 16:9
Frame rate mode                          : Constant
Frame rate                               : 23.976 (24000/1001) FPS
Color space                              : YUV
Chroma subsampling                       : 4:2:0
Bit depth                                : 8 bits
Scan type                                : Progressive
Bits/(Pixel*Frame)                       : 0.636
Stream size                              : 20.3 GiB (90%)
Language                                 : English
Default                                  : Yes
Forced                                   : No

Audio #1
ID                                       : 2
Format                                   : DTS
Format/Info                              : Digital Theater Systems
Format profile                           : MA / Core
Mode                                     : 16
Format settings, Endianness              : Big
Codec ID                                 : A_DTS
Duration                                 : 1 h 31 min
Bit rate mode                            : Variable / Constant
Bit rate                                 : 3 366 kb/s / 1 509 kb/s
Channel(s)                               : 6 channels
Channel positions                        : Front: L C R, Side: L R, LFE
Sampling rate                            : 48.0 kHz
Frame rate                               : 93.750 FPS (512 spf)
Bit depth                                : 24 bits
Compression mode                         : Lossless / Lossy
Stream size                              : 2.16 GiB (10%)
Language                                 : English
Default                                  : Yes
Forced                                   : No

Audio #2
ID                                       : 3
Format                                   : AC-3
Format/Info                              : Audio Coding 3
Mode extension                           : CM (complete main)
Format settings, Endianness              : Big
Codec ID                                 : A_AC3
Duration                                 : 1 h 31 min
Bit rate mode                            : Constant
Bit rate                                 : 224 kb/s
Channel(s)                               : 2 channels
Channel positions                        : Front: L R
Sampling rate                            : 48.0 kHz
Frame rate                               : 31.250 FPS (1536 spf)
Compression mode                         : Lossy
Stream size                              : 147 MiB (1%)
Language                                 : English
Default                                  : No
Forced                                   : No

Text #1
ID                                       : 4
Format                                   : PGS
Muxing mode                              : zlib
Codec ID                                 : S_HDMV/PGS
Codec ID/Info                            : Picture based subtitle format used on BDs/HD-DVDs
Duration                                 : 1 h 31 min
Bit rate                                 : 30.5 kb/s
Count of elements                        : 2284
Stream size                              : 19.9 MiB (0%)
Default                                  : No
Forced                                   : No

Text #2
ID                                       : 5
Format                                   : PGS
Muxing mode                              : zlib
Codec ID                                 : S_HDMV/PGS
Codec ID/Info                            : Picture based subtitle format used on BDs/HD-DVDs
Duration                                 : 1 h 31 min
Bit rate                                 : 21.0 kb/s
Count of elements                        : 1802
Stream size                              : 13.7 MiB (0%)
Language                                 : Spanish
Default                                  : No
Forced                                   : No

Text #3
ID                                       : 6
Format                                   : PGS
Muxing mode                              : zlib
Codec ID                                 : S_HDMV/PGS
Codec ID/Info                            : Picture based subtitle format used on BDs/HD-DVDs
Duration                                 : 1 h 31 min
Bit rate                                 : 24.3 kb/s
Count of elements                        : 1818
Stream size                              : 15.9 MiB (0%)
Language                                 : French
Default                                  : No
Forced                                   : No

Text #4
ID                                       : 7
Format                                   : PGS
Muxing mode                              : zlib
Codec ID                                 : S_HDMV/PGS
Codec ID/Info                            : Picture based subtitle format used on BDs/HD-DVDs
Duration                                 : 1 h 28 min
Bit rate                                 : 63.9 kb/s
Count of elements                        : 2805
Stream size                              : 40.6 MiB (0%)
Language                                 : English
Default                                  : Yes
Forced                                   : No

Text #5
ID                                       : 8
Format                                   : PGS
Muxing mode                              : zlib
Codec ID                                 : S_HDMV/PGS
Codec ID/Info                            : Picture based subtitle format used on BDs/HD-DVDs
Duration                                 : 1 h 31 min
Bit rate                                 : 54.7 kb/s
Count of elements                        : 2781
Stream size                              : 35.8 MiB (0%)
Language                                 : Spanish
Default                                  : No
Forced                                   : No

Text #6
ID                                       : 9
Format                                   : PGS
Muxing mode                              : zlib
Codec ID                                 : S_HDMV/PGS
Codec ID/Info                            : Picture based subtitle format used on BDs/HD-DVDs
Duration                                 : 1 h 31 min
Bit rate                                 : 53.7 kb/s
Count of elements                        : 2783
Stream size                              : 35.2 MiB (0%)
Language                                 : French
Default                                  : No
Forced                                   : No

Menu
00:00:00.000                             : en:00:00:00.000
00:04:05.704                             : en:00:04:05.704
00:09:53.384                             : en:00:09:53.384
00:12:55.441                             : en:00:12:55.441
00:18:32.528                             : en:00:18:32.528
00:24:20.626                             : en:00:24:20.626
00:28:53.774                             : en:00:28:53.774
00:33:59.913                             : en:00:33:59.913
00:38:33.937                             : en:00:38:33.937
00:42:10.027                             : en:00:42:10.027
00:46:54.895                             : en:00:46:54.895
00:50:15.429                             : en:00:50:15.429
00:56:20.919                             : en:00:56:20.919
01:01:39.279                             : en:01:01:39.279
01:05:14.911                             : en:01:05:14.911
01:09:53.523                             : en:01:09:53.523
01:13:42.501                             : en:01:13:42.501
01:21:23.670                             : en:01:21:23.670
01:25:20.907                             : en:01:25:20.907
01:26:46.368                             : en:01:26:46.368

Скриншоты:



Все одноименные релизы в Клубе

Время раздачи: с 13:00 до 23:00
[NNM-Club.me]_The.Prodigy.2019.1080p.BluRay.REMUX.AVC.DTS-HD.MA5.1-iFT.mkv.torrent
 Торрент: Платиновая раздача  Зарегистрирован
 
Скачать


Примагнититься
 Зарегистрирован:   09 Май 2019 09:22:19
 Размер:   22,6 GB  (
 Рейтинг:    (Голосов: 4)
 Поблагодарили:   37
 Проверка:   Оформление проверено модератором 09 Май 2019 09:23:10
Как cкачать  ·  Как раздать  ·  Правильно оформить  ·  Поднять ратио!  
Загрузка...
Показать сообщения:   
Начать новую тему   Ответить на тему    Торрент-трекер NNM-Club -> Зарубежное кино -> Фильмы в оригинале (HD, UHD, UHD-LQ) Часовой пояс: GMT + 3
Страница 1 из 1