Классический форум-трекер
canvas not supported
Нас вместе: 4 078 863

Борьба с моей семьей / Fighting with My Family (2019) BDRemux [H.264/1080p] [EN / EN, Fr, Sp Sub]


 
 
RSS
Начать новую тему   Ответить на тему    Торрент-трекер NNM-Club -> Зарубежное кино -> Фильмы в оригинале (HD, UHD, UHD-LQ)
Автор Сообщение
smaster67 ®
Модератор Видео
Покровитель талантов Uploader 300+
Стаж: 10 лет 3 мес.
Сообщений: 7117
Ratio: 225,405
Поблагодарили: 215364
100%
Борьба с моей семьей / Fighting with My Family (2019) BDRemux [H.264/1080p] [EN / EN, Fr, Sp Sub]

Производство: Великобритания, США, Metro-Goldwyn-Mayer (MGM), Channel 4 Television Corporation, Film4, Misher Films, Seven Bucks Productions, The Ink Factory, WWE Studios
Жанр: драма, комедия, биография, спорт

Режиссер: Стивен Мерчант
Актеры: Дуэйн Джонсон, Лина Хиди, Винс Вон, Стивен Мерчант, Ник Фрост, Джек Лауден, Джошуа Майерс, Акилла Золл, Кимберли Матула, Эли Джейн, Пол Уайт, Хлоя Ксенджери, Флоренс Пью

Описание:
В центре сюжета семья Бевис: бывший рестлер Патрик, его жена Джулия и их дети Зак и Сарайя. Они устраивают живые выступления на маленьких площадках, разъезжая по стране. Зак и Сарайя мечтают стать известными и попасть в международную ассоциацию рестлинга.



Продолжительность: 01:48:28
Качество видео: BDRemux
Перевод: Отсутствует
Язык озвучки: Английский
Субтитры: английские, испанские, французские

Видео: AVC/H.264, 1920x1080, 32471 kbps
Аудио №1: английский, DTS-HD MA, 5.1, 3498 kbps
Аудио №2: английский, AC3, 2.0, 192 kbps
Код: выделить все
General
Unique ID                                : 312664764063139068029277642895703908872 (0xEB390B0CF3F73F984C1E1631B8ABA208)
Complete name                            : Fighting.with.My.Family.2019.REMUX.BluRay.1080p.AVC.DTS-HD.MA5.1-iFT\Fighting.with.My.Family.2019.REMUX.BluRay.1080p.AVC.DTS-HD.MA5.1-iFT.mkv
Format                                   : Matroska
Format version                           : Version 4 / Version 2
File size                                : 27.4 GiB
Duration                                 : 1 h 48 min
Overall bit rate mode                    : Variable
Overall bit rate                         : 36.2 Mb/s
Encoded date                             : UTC 2019-05-07 18:01:33
Writing application                      : mkvmerge v33.1.0 ('Primrose') 64-bit
Writing library                          : libebml v1.3.7 + libmatroska v1.5.0

Video
ID                                       : 1
Format                                   : AVC
Format/Info                              : Advanced Video Codec
Format profile                           : High@L4.1
Format settings, CABAC                   : Yes
Format settings, ReFrames                : 4 frames
Codec ID                                 : V_MPEG4/ISO/AVC
Duration                                 : 1 h 48 min
Bit rate mode                            : Variable
Bit rate                                 : 32.5 Mb/s
Maximum bit rate                         : 35.0 Mb/s
Width                                    : 1 920 pixels
Height                                   : 1 080 pixels
Display aspect ratio                     : 16:9
Frame rate mode                          : Constant
Frame rate                               : 23.976 (24000/1001) FPS
Color space                              : YUV
Chroma subsampling                       : 4:2:0
Bit depth                                : 8 bits
Scan type                                : Progressive
Bits/(Pixel*Frame)                       : 0.653
Stream size                              : 24.6 GiB (90%)
Language                                 : English
Default                                  : Yes
Forced                                   : No

Audio #1
ID                                       : 2
Format                                   : DTS
Format/Info                              : Digital Theater Systems
Format profile                           : MA / Core
Mode                                     : 16
Format settings, Endianness              : Big
Codec ID                                 : A_DTS
Duration                                 : 1 h 48 min
Bit rate mode                            : Variable / Constant
Bit rate                                 : 3 498 kb/s / 1 509 kb/s
Channel(s)                               : 6 channels
Channel positions                        : Front: L C R, Side: L R, LFE
Sampling rate                            : 48.0 kHz
Frame rate                               : 93.750 FPS (512 spf)
Bit depth                                : 24 bits
Compression mode                         : Lossless / Lossy
Stream size                              : 2.65 GiB (10%)
Language                                 : English
Default                                  : Yes
Forced                                   : No

Audio #2
ID                                       : 3
Format                                   : AC-3
Format/Info                              : Audio Coding 3
Format profile                           : Dolby Digital
Mode extension                           : CM (complete main)
Format settings, Endianness              : Big
Codec ID                                 : A_AC3
Duration                                 : 1 h 48 min
Bit rate mode                            : Constant
Bit rate                                 : 192 kb/s
Channel(s)                               : 2 channels
Channel positions                        : Front: L R
Sampling rate                            : 48.0 kHz
Frame rate                               : 31.250 FPS (1536 spf)
Compression mode                         : Lossy
Stream size                              : 149 MiB (1%)
Title                                    : Comentary
Language                                 : English
Default                                  : No
Forced                                   : No

Text #1
ID                                       : 4
Format                                   : PGS
Muxing mode                              : zlib
Codec ID                                 : S_HDMV/PGS
Codec ID/Info                            : Picture based subtitle format used on BDs/HD-DVDs
Duration                                 : 1 h 44 min
Bit rate                                 : 55.6 kb/s
Count of elements                        : 4274
Stream size                              : 41.7 MiB (0%)
Language                                 : English
Default                                  : Yes
Forced                                   : No

Text #2
ID                                       : 5
Format                                   : PGS
Muxing mode                              : zlib
Codec ID                                 : S_HDMV/PGS
Codec ID/Info                            : Picture based subtitle format used on BDs/HD-DVDs
Duration                                 : 1 h 47 min
Bit rate                                 : 43.3 kb/s
Count of elements                        : 3650
Stream size                              : 33.3 MiB (0%)
Language                                 : Spanish
Default                                  : No
Forced                                   : No

Text #3
ID                                       : 6
Format                                   : PGS
Muxing mode                              : zlib
Codec ID                                 : S_HDMV/PGS
Codec ID/Info                            : Picture based subtitle format used on BDs/HD-DVDs
Duration                                 : 1 h 47 min
Bit rate                                 : 38.9 kb/s
Count of elements                        : 3634
Stream size                              : 29.9 MiB (0%)
Language                                 : French
Default                                  : No
Forced                                   : No

Text #4
ID                                       : 7
Format                                   : PGS
Muxing mode                              : zlib
Codec ID                                 : S_HDMV/PGS
Codec ID/Info                            : Picture based subtitle format used on BDs/HD-DVDs
Duration                                 : 1 h 45 min
Bit rate                                 : 1 322 b/s
Count of elements                        : 114
Stream size                              : 1 023 KiB (0%)
Language                                 : French
Default                                  : No
Forced                                   : No

Menu
00:00:00.000                             : :CapA­tulo 01
00:05:10.268                             : :CapA­tulo 02
00:09:46.252                             : :CapA­tulo 03
00:14:29.035                             : :CapA­tulo 04
00:20:54.628                             : :CapA­tulo 05
00:24:54.827                             : :CapA­tulo 06
00:29:09.331                             : :CapA­tulo 07
00:35:18.033                             : :CapA­tulo 08
00:40:51.991                             : :CapA­tulo 09
00:46:06.722                             : :CapA­tulo 10
00:50:55.678                             : :CapA­tulo 11
00:55:50.597                             : :CapA­tulo 12
01:00:43.807                             : :CapA­tulo 13
01:04:15.477                             : :CapA­tulo 14
01:11:51.182                             : :CapA­tulo 15
01:17:03.827                             : :CapA­tulo 16
01:22:03.460                             : :CapA­tulo 17
01:27:34.124                             : :CapA­tulo 18
01:35:04.407                             : :CapA­tulo 19
01:44:07.741                             : :CapA­tulo 20

Скриншоты:



Все одноименные релизы в Клубе

Время раздачи: с 13:00 до 23:00
[NNM-Club.me]_Fighting.with.My.Family.2019.REMUX.BluRay.1080p.AVC.DTS-HD.MA5.1-iFT.mkv.torrent
 Торрент: Платиновая раздача  Зарегистрирован
 
Скачать


Примагнититься
 Зарегистрирован:   10 Май 2019 21:16:44
 Размер:   27,4 GB  (
 Рейтинг:    (Голосов: 7)
 Поблагодарили:   46
 Проверка:   Оформление проверено модератором 10 Май 2019 21:19:09
Как cкачать  ·  Как раздать  ·  Правильно оформить  ·  Поднять ратио!  
Загрузка...
Показать сообщения:   
Начать новую тему   Ответить на тему    Торрент-трекер NNM-Club -> Зарубежное кино -> Фильмы в оригинале (HD, UHD, UHD-LQ) Часовой пояс: GMT + 3
Страница 1 из 1