Классический форум-трекер
canvas not supported
Нас вместе: 4 077 675

Роберт Хайнлайн | Миры Хайнлайна (2019) [M4B|AAC]


 
 
RSS
Начать новую тему   Ответить на тему    Торрент-трекер NNM-Club -> Аудио и Видео -> Аудиокниги (AAC)
Автор Сообщение
trybag ®
Стаж: 6 лет 5 мес.
Сообщений: 187
Ratio: 15,116
Поблагодарили: 5856
100%
Роберт Хайнлайн | Миры Хайнлайна
Автор: Роберт Хайнлайн
Год: 2019
Жанр: Фантастика
Продолжительность: 150:27:33
Читает: Scaners, Ксеноморф, Shniferson, Marsianin73, и др
Издательство: Своими руками

Описание: Аудиокниги одного из крупнейших писателей-фантастов Роберта Хайнлайна.
Собраны в один альбом с разной озвучкой. Приятного времяпровождения.

Формат: M4B
Аудиокодек: AAC
Битрейт: 64 kbps
Частота: 24,0 KHz
Разбивка на книги: есть
Разбивка на главы: есть
Вшитая обложка: есть
Музыкальное сопровождение: частично

1939. Линия Жизни (Scaners)
1940. Взрыв всегда возможен (Freshman)
1940. Реквием (Solldat)
1941. ...А ещё мы выгуливаем собак (Ксеноморф)
1941. Дом который построил Тилл
1941. Однажды (Shniferson)
1941. Они (Алексей Бутылкус)
1941. По пятам (Shniferson)
1942. Неприятная профессия Джонатана Хога (Юрий Заборовский)
1947. Зеленые холмы Земли (Shniferson)
1947. Колумб был остолопом (Анастасия Транжеева)
1947. Космический извозчик (Shniferson)
1948. Испытание космосом (Shniferson)
1949. Долгая вахта (Shniferson)
1949. Красная планета (Marsianin73)
1949. Наш прекрасный город
1949. Скачок в вечность (Леонид Деркач)
1951. Кукловоды (Сергей Кирсанов)
1953. Астронавт Джоунз (Михаил Китель)
1953. Спасательная экспедиция (Лифт в небеса) (Shniferson)
1954. Звездное чудовище (Михаил Китель)
1955. Тоннель в небе (Сергей Кирсанов)
1956. Дверь в лето (Петр Василевский)
1956. Двойная звезда (Доронин Максим)
1957. Гражданин галактики (Marsianin73)
1957. Угроза с Земли (Ovuor)
1958. Будет скафандр — будут и путешествия (Вильколек Андрей)
1959. Все вы зомби (Ксеноморф)
1959. Звездный десант (Кирилл Петров)
1961. Чужак в чужой стране (BIGBAG)
1963. Марсианка Подкейн (Андрей Вильколек)
1963. Пасынки вселенной (digig)
1966. Луна жестко стелет (Олег Воля)

Код: выделить все
Общее
Полное имя                               : Миры Хайнлайна 01.m4b
Формат                                   : MPEG-4
Профиль формата                          : Apple audio with iTunes position
Идентификатор кодека                     : M4B  (M4B /mp42/isom)
Размер файла                             : 356 Мбайт
Продолжительность                        : 14 ч.
Режим общего битрейта                    : Переменный
Общий поток                              : 55,3 Кбит/сек
Альбом                                   : Миры Хайнлайна
Альбом/Исполнитель                       : Роберт Хайнлайн
Часть/Положение                          : 1
Часть/Всего                              : 11
Трек                                     : Миры Хайнлайна 01
Исполнитель                              : Роберт Хайнлайн
Издатель                                 : Своими руками
Жанр                                     : Фантастика
Дата записи                              : 2019
Дата кодирования                         : UTC 2019-05-12 10:53:42
Дата пометки                             : UTC 2019-05-12 16:41:04
Обложка                                  : Yes
art                                      : Роберт Хайнлайн

Аудио
Идентификатор                            : 1
Формат                                   : AAC LC
Формат/Информация                        : Advanced Audio Codec Low Complexity
Идентификатор кодека                     : mp4a-40-2
Продолжительность                        : 14 ч.
Вид битрейта                             : Переменный
Битрейт                                  : 54,5 Кбит/сек
Номинальный битрейт                      : 64,0 Кбит/сек
Максимальный битрейт                     : 112 Кбит/сек
Каналы                                   : 2 канала
Channel layout                           : L R
Частота                                  : 24,0 КГц
Частота кадров                           : 23,438 кадра/сек (1024 SPF)
Метод сжатия                             : С потерями
Размер потока                            : 350 Мбайт (98%)
Дата кодирования                         : UTC 2019-05-12 10:53:42
Дата пометки                             : UTC 2019-05-12 16:41:04
Menus                                    : 2

Меню
Идентификатор                            : 2
Идентификатор кодека                     : text
Продолжительность                        : 14 ч.
Язык                                     : English
Дата кодирования                         : UTC 2019-05-12 17:45:47
Дата пометки                             : UTC 2019-05-12 17:45:47
Menu For                                 : 1
00:00:00.000                             : 1939. Линия жизни (Scaners)
00:42:33.557                             : 1940. Взрыв всегда возможен (Freshman)
01:18:51.776                             : 1940. Реквием (Solldat)
02:04:10.709                             : 1941. ...А ещё мы выгуливаем собак (Ксеноморф)
02:59:43.829                             : 1941. Дом который построил Тилл
03:56:29.525                             : 1941. Однажды (Shniferson)
05:19:18.570                             : 1941. Они (Алексей Бутылкус)
05:57:49.525                             : 1941. По пятам (Shniferson)
07:09:13.087                             : 1942. Неприятная профессия Джонатана Хога (Юрий Заборовский)
12:58:59.200                             : 1947. Зеленые холмы Земли (Shniferson)
13:25:59.637                             : 1947. Колумб был остолопом (Анастасия Транжеева)
13:31:31.200                             : 1947. Космический извозчик (Shniferson)
14:19:51.295                             : 1948. Испытание космосом (Shniferson)
Вид битрейта                             : VBR

Общее
Полное имя                               : Миры Хайнлайна 02.m4b
Формат                                   : MPEG-4
Профиль формата                          : Apple audio with iTunes position
Идентификатор кодека                     : M4B  (M4B /mp42/isom)
Размер файла                             : 412 Мбайт
Продолжительность                        : 15 ч.
Режим общего битрейта                    : Переменный
Общий поток                              : 63,9 Кбит/сек
Альбом                                   : Миры Хайнлайна
Альбом/Исполнитель                       : Роберт Хайнлайн
Часть/Положение                          : 2
Часть/Всего                              : 11
Трек                                     : Миры Хайнлайна 02
Исполнитель                              : Роберт Хайнлайн
Издатель                                 : Своими руками
Жанр                                     : Фантастика
Дата записи                              : 2019
Дата кодирования                         : UTC 2019-05-12 11:08:11
Дата пометки                             : UTC 2019-05-12 16:40:58
Обложка                                  : Yes
art                                      : Роберт Хайнлайн

Аудио
Идентификатор                            : 1
Формат                                   : AAC LC
Формат/Информация                        : Advanced Audio Codec Low Complexity
Идентификатор кодека                     : mp4a-40-2
Продолжительность                        : 15 ч.
Вид битрейта                             : Переменный
Битрейт                                  : 64,0 Кбит/сек
Максимальный битрейт                     : 78,1 Кбит/сек
Каналы                                   : 2 канала
Channel layout                           : L R
Частота                                  : 24,0 КГц
Частота кадров                           : 23,438 кадра/сек (1024 SPF)
Метод сжатия                             : С потерями
Размер потока                            : 406 Мбайт (99%)
Дата кодирования                         : UTC 2019-05-12 11:08:11
Дата пометки                             : UTC 2019-05-12 16:40:58
Menus                                    : 2

Меню
Идентификатор                            : 2
Идентификатор кодека                     : text
Продолжительность                        : 15 ч.
Язык                                     : English
Дата кодирования                         : UTC 2019-05-12 17:46:50
Дата пометки                             : UTC 2019-05-12 17:46:50
Menu For                                 : 1
00:00:00.000                             : 1949. Долгая вахта (Shniferson)
00:35:56.287                             : 1949. Красная планета Глава 1 Виллис (Marsianin73)
00:51:44.042                             : 1949. Красная планета Глава 2 Южная колония. Марс
01:11:18.143                             : 1949. Красная планета Глава 3 Гекко
01:47:15.327                             : 1949. Красная планета Глава 4 Академия имени Лоуэлла
02:19:57.909                             : 1949. Красная планета Глава 5 У маленьких кувшинчиков большие ушки
02:46:15.423                             : 1949. Красная планета Глава 6 Побег
03:27:51.850                             : 1949. Красная планета Глава 7 Погоня
03:52:34.218                             : 1949. Красная планета Глава 8 Иной мир
04:22:33.087                             : 1949. Красная планета Глава 9 Политика
05:12:15.572                             : 1949. Красная планета Глава 10 Мы в ловушке
05:39:09.268                             : 1949. Красная планета Глава 11 Осада
05:55:57.482                             : 1949. Красная планета Глава 12 Не стреляйте
06:17:47.860                             : 1949. Красная планета Глава 13 Это ультиматум
06:30:52.586                             : 1949. Красная планета Глава 14 Виллис
06:45:20.255                             : 1949. Наш прекрасный город
07:35:24.628                             : 1949. Скачок в вечность (Леонид Деркач)
11:09:37.108                             : 1951. Кукловоды Глава 1 (Сергей Кирсанов)
11:21:00.671                             : 1951. Кукловоды Глава 2
11:52:04.607                             : 1951. Кукловоды Глава 3
12:04:44.841                             : 1951. Кукловоды Глава 4
12:19:59.529                             : 1951. Кукловоды Глава 5
12:38:53.268                             : 1951. Кукловоды Глава 6
12:55:54.068                             : 1951. Кукловоды Глава 7
13:03:48.948                             : 1951. Кукловоды Глава 8
13:17:25.929                             : 1951. Кукловоды Глава 9
13:27:29.449                             : 1951. Кукловоды Глава 10
14:07:02.057                             : 1951. Кукловоды Глава 11
14:23:42.761                             : 1951. Кукловоды Глава 12
14:42:50.239                             : 1951. Кукловоды Глава 13
14:49:50.377                             : 1951. Кукловоды Глава 14
Вид битрейта                             : VBR

Общее
Полное имя                               : Миры Хайнлайна 03.m4b
Формат                                   : MPEG-4
Профиль формата                          : Apple audio with iTunes position
Идентификатор кодека                     : M4B  (M4B /mp42/isom)
Размер файла                             : 391 Мбайт
Продолжительность                        : 15 ч.
Режим общего битрейта                    : Переменный
Общий поток                              : 60,8 Кбит/сек
Альбом                                   : Миры Хайнлайна
Альбом/Исполнитель                       : Роберт Хайнлайн
Часть/Положение                          : 3
Часть/Всего                              : 11
Трек                                     : Миры Хайнлайна 03
Исполнитель                              : Роберт Хайнлайн
Издатель                                 : Своими руками
Жанр                                     : Фантастика
Дата записи                              : 2019
Дата кодирования                         : UTC 2019-05-12 11:26:38
Дата пометки                             : UTC 2019-05-12 16:40:51
Обложка                                  : Yes
art                                      : Роберт Хайнлайн

Аудио
Идентификатор                            : 1
Формат                                   : AAC LC
Формат/Информация                        : Advanced Audio Codec Low Complexity
Идентификатор кодека                     : mp4a-40-2
Продолжительность                        : 15 ч.
Вид битрейта                             : Переменный
Битрейт                                  : 59,9 Кбит/сек
Номинальный битрейт                      : 64,0 Кбит/сек
Максимальный битрейт                     : 73,9 Кбит/сек
Каналы                                   : 2 канала
Channel layout                           : L R
Частота                                  : 24,0 КГц
Частота кадров                           : 23,438 кадра/сек (1024 SPF)
Метод сжатия                             : С потерями
Размер потока                            : 386 Мбайт (99%)
Дата кодирования                         : UTC 2019-05-12 11:26:38
Дата пометки                             : UTC 2019-05-12 16:40:51
Menus                                    : 2

Меню
Идентификатор                            : 2
Идентификатор кодека                     : text
Продолжительность                        : 15 ч.
Язык                                     : English
Дата кодирования                         : UTC 2019-05-12 17:47:43
Дата пометки                             : UTC 2019-05-12 17:47:43
Menu For                                 : 1
00:00:00.000                             : 1951. Кукловоды Глава 15
00:06:44.906                             : 1951. Кукловоды Глава 16
00:30:26.858                             : 1951. Кукловоды Глава 17
00:38:21.525                             : 1951. Кукловоды Глава 18
01:02:43.029                             : 1951. Кукловоды Глава 19
01:21:48.587                             : 1951. Кукловоды Глава 20
01:27:43.915                             : 1951. Кукловоды Глава 21
01:54:58.859                             : 1951. Кукловоды Глава 22
02:08:33.280                             : 1951. Кукловоды Глава 23
02:27:56.202                             : 1951. Кукловоды Глава 24
02:42:09.578                             : 1951. Кукловоды Глава 25
02:47:10.378                             : 1951. Кукловоды Глава 26
02:54:58.645                             : 1951. Кукловоды Глава 27
03:33:54.816                             : 1951. Кукловоды Глава 28
03:43:05.344                             : 1951. Кукловоды Глава 29
03:49:59.424                             : 1951. Кукловоды Глава 30
04:08:46.592                             : 1951. Кукловоды Глава 31
04:22:53.098                             : 1951. Кукловоды Глава 32
04:31:38.794                             : 1951. Кукловоды Глава 33
04:37:06.389                             : 1951. Кукловоды Глава 34
04:56:00.426                             : 1951. Кукловоды Глава 35
05:01:48.501                             : 1953. Астронавт Джоунз Глава 1 Томагавк (Михаил Китель)
05:40:04.522                             : 1953. Астронавт Джоунз Глава 2 Добрый самаритянин
06:08:38.527                             : 1953. Астронавт Джоунз Глава 3 Космодром
06:32:58.965                             : 1953. Астронавт Джоунз Глава 4 Гильдия астрогаторов
06:59:53.344                             : 1953. Астронавт Джоунз Глава 5 Твои деньги и мой опыт
07:20:28.501                             : 1953. Астронавт Джоунз Глава 6 Космонавт Джоунз
07:56:55.210                             : 1953. Астронавт Джоунз Глава 7 Элдрет
08:30:13.376                             : 1953. Астронавт Джоунз Глава 8 Три пути на верх
08:50:30.144                             : 1953. Астронавт Джоунз Глава 9 Картограф Джоунз
09:23:52.320                             : 1953. Астронавт Джоунз Глава 10 Планета Гарсона
09:55:00.992                             : 1953. Астронавт Джоунз Глава 11 Через грузовой люк
10:26:51.136                             : 1953. Астронавт Джоунз Глава 12 Альцион
11:18:40.384                             : 1953. Астронавт Джоунз Глава 13 Переход
11:50:36.715                             : 1953. Астронавт Джоунз Глава 14 Незнакомые звезды
12:16:42.965                             : 1953. Астронавт Джоунз Глава 15 Это не пикник
12:48:17.451                             : 1953. Астронавт Джоунз Глава 16 Больше сотни лет
13:14:23.104                             : 1953. Астронавт Джоунз Глава 17 Милосердие
13:38:25.579                             : 1953. Астронавт Джоунз Глава 18 Цивилизация
14:25:15.733                             : 1953. Астронавт Джоунз Глава 19 Друг в беде
Вид битрейта                             : VBR

Общее
Полное имя                               : Миры Хайнлайна 04.m4b
Формат                                   : MPEG-4
Профиль формата                          : Apple audio with iTunes position
Идентификатор кодека                     : M4B  (M4B /mp42/isom)
Размер файла                             : 397 Мбайт
Продолжительность                        : 14 ч.
Режим общего битрейта                    : Переменный
Общий поток                              : 61,8 Кбит/сек
Альбом                                   : Миры Хайнлайна
Альбом/Исполнитель                       : Роберт Хайнлайн
Часть/Положение                          : 4
Часть/Всего                              : 11
Трек                                     : Миры Хайнлайна 04
Исполнитель                              : Роберт Хайнлайн
Издатель                                 : Своими руками
Жанр                                     : Фантастика
Дата записи                              : 2019
Дата кодирования                         : UTC 2019-05-12 11:45:19
Дата пометки                             : UTC 2019-05-12 16:40:44
Обложка                                  : Yes
art                                      : Роберт Хайнлайн

Аудио
Идентификатор                            : 1
Формат                                   : AAC LC
Формат/Информация                        : Advanced Audio Codec Low Complexity
Идентификатор кодека                     : mp4a-40-2
Продолжительность                        : 14 ч.
Вид битрейта                             : Переменный
Битрейт                                  : 60,9 Кбит/сек
Номинальный битрейт                      : 64,0 Кбит/сек
Максимальный битрейт                     : 73,2 Кбит/сек
Каналы                                   : 2 канала
Channel layout                           : L R
Частота                                  : 24,0 КГц
Частота кадров                           : 23,438 кадра/сек (1024 SPF)
Метод сжатия                             : С потерями
Размер потока                            : 391 Мбайт (99%)
Дата кодирования                         : UTC 2019-05-12 11:45:19
Дата пометки                             : UTC 2019-05-12 16:40:44
Menus                                    : 2

Меню
Идентификатор                            : 2
Идентификатор кодека                     : text
Продолжительность                        : 14 ч.
Язык                                     : English
Дата кодирования                         : UTC 2019-05-12 17:48:27
Дата пометки                             : UTC 2019-05-12 17:48:27
Menu For                                 : 1
00:00:00.000                             : 1953. Астронавт Джоунз Глава 20 Корабль это не просто кусок стали
00:31:46.815                             : 1953. Астронавт Джоунз Глава 21 Капитан Асгарда
01:12:56.960                             : 1953. Астронавт Джоунз Глава 22 Томагавк
01:19:10.464                             : 1953. Спасательная экспедиция (Лифт в небеса) (Shniferson)
02:09:38.560                             : 1954. Звездное чудовище Глава 1 День освобождения (Михаил Китель)
02:53:19.573                             : 1954. Звездное чудовище Глава 2 Министерство по делам космоса
03:11:40.885                             : 1954. Звездное чудовище Глава 3 Сэр это не уместный вопрос
03:57:53.024                             : 1954. Звездное чудовище Глава 4 Обвиняемый на скамье подсудимых
04:58:11.285                             : 1954. Звездное чудовище Глава 5 С какой стороны поглядеть
05:38:50.410                             : 1954. Звездное чудовище Глава 6 Космос велик, Ваше Превосходительство
06:17:33.610                             : 1954. Звездное чудовище Глава 7 Маме лучше знать
06:57:49.184                             : 1954. Звездное чудовище Глава 8 Здравый смысл
07:17:34.933                             : 1954. Звездное чудовище Глава 9 Таможня и гадкий утенок
07:53:45.087                             : 1954. Звездное чудовище Глава 10 Решение по делу Цингуса
08:26:20.245                             : 1954. Звездное чудовище Глава 11 Слишком поздно, Джонни
08:51:38.496                             : 1954. Звездное чудовище Глава 12 Пиджи Виджи
09:42:16.362                             : 1954. Звездное чудовище Глава 13 Нет, господин министр
10:15:27.957                             : 1954. Звездное чудовище Глава 14 Судьба, Чушь собачья
10:51:38.666                             : 1954. Звездное чудовище Глава 15 Недипломатические отношения
11:27:57.440                             : 1954. Звездное чудовище Глава 16 Извините что мы все испортили
11:56:46.207                             : 1954. Звездное чудовище Глава 17 Свадебный обед
12:19:18.997                             : 1955. Тоннель в небе Глава 1 Марширующие орды (Сергей Кирсанов)
13:06:41.194                             : 1955. Тоннель в небе Глава 2 Пятый путь
13:51:14.047                             : 1955. Тоннель в небе Глава 3 Через туннель
Вид битрейта                             : VBR

Общее
Полное имя                               : Миры Хайнлайна 05.m4b
Формат                                   : MPEG-4
Профиль формата                          : Apple audio with iTunes position
Идентификатор кодека                     : M4B  (M4B /mp42/isom)
Размер файла                             : 408 Мбайт
Продолжительность                        : 14 ч.
Режим общего битрейта                    : Переменный
Общий поток                              : 66,3 Кбит/сек
Альбом                                   : Миры Хайнлайна
Альбом/Исполнитель                       : Роберт Хайнлайн
Часть/Положение                          : 5
Часть/Всего                              : 11
Трек                                     : Миры Хайнлайна 05
Исполнитель                              : Роберт Хайнлайн
Издатель                                 : Своми руками
Жанр                                     : Фантастика
Дата записи                              : 2019
Дата кодирования                         : UTC 2019-05-12 12:03:33
Дата пометки                             : UTC 2019-05-12 16:40:37
Обложка                                  : Yes
art                                      : Роберт Хайнлайн

Аудио
Идентификатор                            : 1
Формат                                   : AAC LC
Формат/Информация                        : Advanced Audio Codec Low Complexity
Идентификатор кодека                     : mp4a-40-2
Продолжительность                        : 14 ч.
Вид битрейта                             : Переменный
Битрейт                                  : 64,0 Кбит/сек
Максимальный битрейт                     : 73,9 Кбит/сек
Каналы                                   : 2 канала
Channel layout                           : L R
Частота                                  : 24,0 КГц
Частота кадров                           : 23,438 кадра/сек (1024 SPF)
Метод сжатия                             : С потерями
Размер потока                            : 402 Мбайт (99%)
Дата кодирования                         : UTC 2019-05-12 12:03:33
Дата пометки                             : UTC 2019-05-12 16:40:37
Menus                                    : 2

Меню
Идентификатор                            : 2
Идентификатор кодека                     : text
Продолжительность                        : 14 ч.
Язык                                     : English
Дата кодирования                         : UTC 2019-05-12 17:49:23
Дата пометки                             : UTC 2019-05-12 17:49:23
Menu For                                 : 1
00:00:00.000                             : 1955. Тоннель в небе Глава 4 Дикарь
00:18:42.687                             : 1955. Тоннель в небе Глава 5 Новая звезда
00:37:30.240                             : 1955. Тоннель в небе Глава 6 Я думаю, он мертв
01:02:11.114                             : 1955. Тоннель в небе Глава 7 Надо было хоть пирог испечь
01:22:49.983                             : 1955. Тоннель в небе Глава 8 Придется вам выбирать
02:14:52.031                             : 1955. Тоннель в небе Глава 9 Радостное знамение
02:29:55.199                             : 1955. Тоннель в небе Глава 10 Вношу предложение
03:09:16.927                             : 1955. Тоннель в небе Глава 11 Берег скелетов
03:36:22.228                             : 1955. Тоннель в небе Глава 12 Ничего не выйдет, Родди
03:48:40.959                             : 1955. Тоннель в небе Глава 13 Непобедимый
04:33:00.970                             : 1955. Тоннель в небе Глава 14 Цивилизация
05:21:29.599                             : 1955. Тоннель в небе Глава 15 В Ахиллесовом шатре
06:03:41.098                             : 1955. Тоннель в небе Глава 16 Бесконечная дорога
06:20:14.079                             : 1956. Дверь в лето Глава 1 (Петр Василевский)
07:00:25.343                             : 1956. Дверь в лето Глава 2
08:19:26.847                             : 1956. Дверь в лето Глава 3
08:45:02.207                             : 1956. Дверь в лето Глава 4
09:16:29.482                             : 1956. Дверь в лето Глава 5
10:12:33.407                             : 1956. Дверь в лето Глава 6
10:57:51.061                             : 1956. Дверь в лето Глава 7
11:13:15.989                             : 1956. Дверь в лето Глава 8
12:03:04.234                             : 1956. Дверь в лето Глава 9
12:35:11.232                             : 1956. Дверь в лето Глава 10
13:22:52.629                             : 1956. Дверь в лето Глава 11
13:54:39.018                             : 1956. Дверь в лето Глава 12
Вид битрейта                             : VBR

Общее
Полное имя                               : Миры Хайнлайна 06.m4b
Формат                                   : MPEG-4
Профиль формата                          : Apple audio with iTunes position
Идентификатор кодека                     : M4B  (M4B /mp42/isom)
Размер файла                             : 389 Мбайт
Продолжительность                        : 14 ч.
Режим общего битрейта                    : Переменный
Общий поток                              : 62,6 Кбит/сек
Альбом                                   : Миры Хайнлайна
Альбом/Исполнитель                       : Роберт Хайнлайн
Часть/Положение                          : 6
Часть/Всего                              : 11
Трек                                     : Миры Хайнлайна 06
Исполнитель                              : Роберт Хайнлайн
Издатель                                 : Своми руками
Жанр                                     : Фантастика
Дата записи                              : 2019
Дата кодирования                         : UTC 2019-05-12 12:20:45
Дата пометки                             : UTC 2019-05-12 16:40:29
Обложка                                  : Yes
art                                      : Роберт Хайнлайн

Аудио
Идентификатор                            : 1
Формат                                   : AAC LC
Формат/Информация                        : Advanced Audio Codec Low Complexity
Идентификатор кодека                     : mp4a-40-2
Продолжительность                        : 14 ч.
Вид битрейта                             : Переменный
Битрейт                                  : 64,0 Кбит/сек
Максимальный битрейт                     : 71,4 Кбит/сек
Каналы                                   : 2 канала
Channel layout                           : L R
Частота                                  : 24,0 КГц
Частота кадров                           : 23,438 кадра/сек (1024 SPF)
Метод сжатия                             : С потерями
Размер потока                            : 383 Мбайт (99%)
Дата кодирования                         : UTC 2019-05-12 12:20:45
Дата пометки                             : UTC 2019-05-12 16:40:29
Menus                                    : 2

Меню
Идентификатор                            : 2
Идентификатор кодека                     : text
Продолжительность                        : 14 ч.
Язык                                     : English
Дата кодирования                         : UTC 2019-05-12 17:50:23
Дата пометки                             : UTC 2019-05-12 17:50:23
Menu For                                 : 1
00:00:00.000                             : 1956. Двойная звезда Глава 1 (Доронин Максим)
01:00:37.973                             : 1956. Двойная звезда Глава 2
01:26:39.957                             : 1956. Двойная звезда Глава 3
01:55:54.368                             : 1956. Двойная звезда Глава 4
02:26:24.768                             : 1956. Двойная звезда Глава 5
02:56:43.989                             : 1956. Двойная звезда Глава 6
03:40:37.973                             : 1956. Двойная звезда Глава 7
04:24:38.528                             : 1956. Двойная звезда Глава 8
05:03:39.435                             : 1956. Двойная звезда Глава 9
05:58:29.205                             : 1956. Двойная звезда Глава 10
06:29:16.715                             : 1957. Гражданин галактики 1 (Marsianin73)
06:38:21.610                             : 1957. Гражданин галактики 2
06:47:11.402                             : 1957. Гражданин галактики 3
06:56:03.200                             : 1957. Гражданин галактики 4
07:10:29.802                             : 1957. Гражданин галактики 5
07:23:37.045                             : 1957. Гражданин галактики 6
07:38:31.296                             : 1957. Гражданин галактики 7
07:56:57.600                             : 1957. Гражданин галактики 8
08:10:37.824                             : 1957. Гражданин галактики 9
08:26:47.424                             : 1957. Гражданин галактики 10
08:39:22.325                             : 1957. Гражданин галактики 11
08:47:02.613                             : 1957. Гражданин галактики 12
08:55:35.979                             : 1957. Гражданин галактики 13
09:04:08.875                             : 1957. Гражданин галактики 14
09:15:36.789                             : 1957. Гражданин галактики 15
09:30:17.813                             : 1957. Гражданин галактики 16
09:45:02.677                             : 1957. Гражданин галактики 17
10:07:38.539                             : 1957. Гражданин галактики 18
10:31:29.792                             : 1957. Гражданин галактики 19
10:37:41.163                             : 1957. Гражданин галактики 20
10:53:34.251                             : 1957. Гражданин галактики 21
11:05:08.139                             : 1957. Гражданин галактики 22
11:21:08.651                             : 1957. Угроза с Земли (Ovuor)
12:13:56.139                             : 1958. Будет скафандр — будут и путешествия Глава 1 (Андрей Вильколек)
12:42:21.483                             : 1958. Будет скафандр — будут и путешествия Глава 2
12:59:51.510                             : 1958. Будет скафандр — будут и путешествия Глава 3
13:48:37.376                             : 1958. Будет скафандр — будут и путешествия Глава 4
Вид битрейта                             : VBR

Общее
Полное имя                               : Миры Хайнлайна 07.m4b
Формат                                   : MPEG-4
Профиль формата                          : Apple audio with iTunes position
Идентификатор кодека                     : M4B  (M4B /mp42/isom)
Размер файла                             : 403 Мбайт
Продолжительность                        : 14 ч.
Режим общего битрейта                    : Переменный
Общий поток                              : 63,3 Кбит/сек
Альбом                                   : Миры Хайнлайна
Альбом/Исполнитель                       : Роберт Хайнлайн
Часть/Положение                          : 7
Часть/Всего                              : 11
Трек                                     : Миры Хайнлайна 07
Исполнитель                              : Роберт Хайнлайн
Издатель                                 : Своми руками
Жанр                                     : Фантастика
Дата записи                              : 2019
Дата кодирования                         : UTC 2019-05-12 12:38:14
Дата пометки                             : UTC 2019-05-12 16:40:22
Обложка                                  : Yes
art                                      : Роберт Хайнлайн

Аудио
Идентификатор                            : 1
Формат                                   : AAC LC
Формат/Информация                        : Advanced Audio Codec Low Complexity
Идентификатор кодека                     : mp4a-40-2
Продолжительность                        : 14 ч.
Продолжительность оригинала              : 14 ч.
Вид битрейта                             : Переменный
Битрейт                                  : 64,0 Кбит/сек
Максимальный битрейт                     : 73,0 Кбит/сек
Каналы                                   : 2 канала
Channel layout                           : L R
Частота                                  : 24,0 КГц
Частота кадров                           : 23,438 кадра/сек (1024 SPF)
Метод сжатия                             : С потерями
Размер потока                            : 397 Мбайт (99%)
Размер потока оригинала                  : 397 Мбайт (99%)
Дата кодирования                         : UTC 2019-05-12 12:38:14
Дата пометки                             : UTC 2019-05-12 16:40:22
Menus                                    : 2

Меню
Идентификатор                            : 2
Идентификатор кодека                     : text
Продолжительность                        : 14 ч.
Язык                                     : English
Дата кодирования                         : UTC 2019-05-12 17:51:18
Дата пометки                             : UTC 2019-05-12 17:51:18
Menu For                                 : 1
Продолжительность оригинала              : 53332736
Количество кадров оригинала              : 20
Размер потока оригинала                  : 1586
Счётчик кадров                           : 20
Размер потока                            : 1586
00:00:00.000                             : 1958. Будет скафандр — будут и путешествия Глава 5
00:54:20.330                             : 1958. Будет скафандр — будут и путешествия Глава 6
01:54:09.835                             : 1958. Будет скафандр — будут и путешествия Глава 7
02:55:19.936                             : 1958. Будет скафандр — будут и путешествия Глава 8
04:08:48.725                             : 1958. Будет скафандр — будут и путешествия Глава 9
05:31:16.096                             : 1958. Будет скафандр — будут и путешествия Глава 10
06:30:52.970                             : 1958. Будет скафандр — будут и путешествия Глава 11
07:14:11.328                             : 1958. Будет скафандр — будут и путешествия Глава 12
07:49:20.597                             : 1959. Все вы зомби (Ксеноморф)
08:22:22.122                             : 1959. Звездный десант Глава 1 (Кирилл Петров)
09:07:00.010                             : 1959. Звездный десант Глава 2
10:00:19.456                             : 1959. Звездный десант Глава 3
10:21:41.717                             : 1959. Звездный десант Глава 4
10:41:31.562                             : 1959. Звездный десант Глава 5
11:23:26.421                             : 1959. Звездный десант Глава 6
12:09:54.090                             : 1959. Звездный десант Глава 7
12:32:48.810                             : 1959. Звездный десант Глава 8
13:08:40.661                             : 1959. Звездный десант Глава 9
13:28:41.770                             : 1959. Звездный десант Глава 10
14:05:06.730                             : 1959. Звездный десант Глава 11
Вид битрейта                             : VBR

Общее
Полное имя                               : Миры Хайнлайна 08.m4b
Формат                                   : MPEG-4
Профиль формата                          : Apple audio with iTunes position
Идентификатор кодека                     : M4B  (M4B /mp42/isom)
Размер файла                             : 367 Мбайт
Продолжительность                        : 13 ч.
Режим общего битрейта                    : Переменный
Общий поток                              : 63,3 Кбит/сек
Альбом                                   : Миры Хайнлайна
Альбом/Исполнитель                       : Роберт Хайнлайн
Часть/Положение                          : 8
Часть/Всего                              : 11
Трек                                     : Миры Хайнлайна 08
Исполнитель                              : Роберт Хайнлайн
Издатель                                 : Своими руками
Жанр                                     : Фантастика
Дата записи                              : 2019
Дата кодирования                         : UTC 2019-05-12 12:57:52
Дата пометки                             : UTC 2019-05-12 16:40:15
Обложка                                  : Yes
art                                      : Роберт Хайнлайн

Аудио
Идентификатор                            : 1
Формат                                   : AAC LC
Формат/Информация                        : Advanced Audio Codec Low Complexity
Идентификатор кодека                     : mp4a-40-2
Продолжительность                        : 13 ч.
Вид битрейта                             : Переменный
Битрейт                                  : 64,0 Кбит/сек
Максимальный битрейт                     : 75,0 Кбит/сек
Каналы                                   : 2 канала
Channel layout                           : L R
Частота                                  : 24,0 КГц
Частота кадров                           : 23,438 кадра/сек (1024 SPF)
Метод сжатия                             : С потерями
Размер потока                            : 362 Мбайт (99%)
Дата кодирования                         : UTC 2019-05-12 12:57:52
Дата пометки                             : UTC 2019-05-12 16:40:15
Menus                                    : 2

Меню
Идентификатор                            : 2
Идентификатор кодека                     : text
Продолжительность                        : 13 ч.
Язык                                     : English
Дата кодирования                         : UTC 2019-05-12 17:52:15
Дата пометки                             : UTC 2019-05-12 17:52:15
Menu For                                 : 1
00:00:00.000                             : 1959. Звездный десант Глава 12
01:29:34.847                             : 1959. Звездный десант Глава 13
03:43:14.175                             : 1959. Звездный десант Глава 14
03:49:44.575                             : 1961. Чужак в чужой стране Часть 1 Он был зачат порочно(BIGBAG)
06:35:01.930                             : 1961. Чужак в чужой стране Часть 2 Астрономическое наследство
Вид битрейта                             : VBR

Общее
Полное имя                               : Миры Хайнлайна 09.m4b
Формат                                   : MPEG-4
Профиль формата                          : Apple audio with iTunes position
Идентификатор кодека                     : M4B  (M4B /mp42/isom)
Размер файла                             : 396 Мбайт
Продолжительность                        : 15 ч.
Режим общего битрейта                    : Переменный
Общий поток                              : 61,3 Кбит/сек
Альбом                                   : Миры Хайнлайна
Альбом/Исполнитель                       : Роберт Хайнлайн
Часть/Положение                          : 9
Часть/Всего                              : 11
Трек                                     : Миры Хайнлайна 09
Исполнитель                              : Роберт Хайнлайн
Издатель                                 : Своими руками
Жанр                                     : Фантастика
Дата записи                              : 2019
Дата кодирования                         : UTC 2019-05-12 13:11:18
Дата пометки                             : UTC 2019-05-12 16:40:07
Обложка                                  : Yes
art                                      : Роберт Хайнлайн

Аудио
Идентификатор                            : 1
Формат                                   : AAC LC
Формат/Информация                        : Advanced Audio Codec Low Complexity
Идентификатор кодека                     : mp4a-40-2
Продолжительность                        : 15 ч.
Вид битрейта                             : Переменный
Битрейт                                  : 60,5 Кбит/сек
Номинальный битрейт                      : 64,0 Кбит/сек
Максимальный битрейт                     : 106 Кбит/сек
Каналы                                   : 2 канала
Channel layout                           : L R
Частота                                  : 24,0 КГц
Частота кадров                           : 23,438 кадра/сек (1024 SPF)
Метод сжатия                             : С потерями
Размер потока                            : 390 Мбайт (99%)
Дата кодирования                         : UTC 2019-05-12 13:11:18
Дата пометки                             : UTC 2019-05-12 16:40:07
Menus                                    : 2

Меню
Идентификатор                            : 2
Идентификатор кодека                     : text
Продолжительность                        : 15 ч.
Язык                                     : English
Дата кодирования                         : UTC 2019-05-12 17:53:10
Дата пометки                             : UTC 2019-05-12 17:53:10
Menu For                                 : 1
00:00:00.000                             : 1961. Чужак в чужой стране Часть 3 Плоды эксцентричного воспитания
04:39:17.120                             : 1961. Чужак в чужой стране Часть 4 Головокружительная карьера
05:29:52.000                             : 1961. Чужак в чужой стране Часть 5 Счастливый удел
07:55:42.378                             : 1963. Марсианка Подкейн 1 (Андрей Вильколек)
08:16:31.487                             : 1963. Марсианка Подкейн 2
08:29:51.487                             : 1963. Марсианка Подкейн 3
08:57:37.194                             : 1963. Марсианка Подкейн 4
09:31:25.525                             : 1963. Марсианка Подкейн 5
09:56:29.397                             : 1963. Марсианка Подкейн 6
10:28:44.245                             : 1963. Марсианка Подкейн 7
10:39:07.647                             : 1963. Марсианка Подкейн 8
11:30:58.346                             : 1963. Марсианка Подкейн 9
12:26:41.706                             : 1963. Марсианка Подкейн 10
13:04:11.946                             : 1963. Марсианка Подкейн 11
13:33:57.461                             : 1963. Марсианка Подкейн 12
13:47:26.122                             : 1963. Марсианка Подкейн 13
14:46:18.581                             : 1963. Марсианка Подкейн Постлюдия
Вид битрейта                             : VBR

Общее
Полное имя                               : Миры Хайнлайна 10.m4b
Формат                                   : MPEG-4
Профиль формата                          : Apple audio with iTunes position
Идентификатор кодека                     : M4B  (M4B /mp42/isom)
Размер файла                             : 303 Мбайт
Продолжительность                        : 10 ч.
Режим общего битрейта                    : Переменный
Общий поток                              : 66,5 Кбит/сек
Альбом                                   : Миры Хайнлайна
Альбом/Исполнитель                       : Роберт Хайнлайн
Часть/Положение                          : 10
Часть/Всего                              : 11
Трек                                     : Миры Хайнлайна 10
Исполнитель                              : Роберт Хайнлайн
Издатель                                 : Своими руками
Жанр                                     : Фантастика
Дата записи                              : 2019
Дата кодирования                         : UTC 2019-05-12 13:27:02
Дата пометки                             : UTC 2019-05-12 16:39:59
Обложка                                  : Yes
art                                      : Роберт Хайнлайн

Аудио
Идентификатор                            : 1
Формат                                   : AAC LC
Формат/Информация                        : Advanced Audio Codec Low Complexity
Идентификатор кодека                     : mp4a-40-2
Продолжительность                        : 10 ч.
Вид битрейта                             : Переменный
Битрейт                                  : 64,0 Кбит/сек
Максимальный битрейт                     : 121 Кбит/сек
Каналы                                   : 2 канала
Channel layout                           : L R
Частота                                  : 24,0 КГц
Частота кадров                           : 23,438 кадра/сек (1024 SPF)
Метод сжатия                             : С потерями
Размер потока                            : 298 Мбайт (99%)
Дата кодирования                         : UTC 2019-05-12 13:27:02
Дата пометки                             : UTC 2019-05-12 16:39:59
Menus                                    : 2

Меню
Идентификатор                            : 2
Идентификатор кодека                     : text
Продолжительность                        : 10 ч.
Язык                                     : English
Дата кодирования                         : UTC 2019-05-12 17:53:48
Дата пометки                             : UTC 2019-05-12 17:53:48
Menu For                                 : 1
Duration_FirstFrame                      : -2875776
Duration_LastFrame                       : 15097045
00:00:00.000                             : 1963. Пасынки вселенной Часть 1 Вселенная (digig)
01:36:08.490                             : 1963. Пасынки вселенной Часть 2 Здравый смысл
04:00:12.757                             : 1966. Луна жестко стелет Книга 1 Чудо-юдо мудрачок (Олег Воля)
Вид битрейта                             : VBR

Общее
Полное имя                               : Миры Хайнлайна 11.m4b
Формат                                   : MPEG-4
Профиль формата                          : Apple audio with iTunes position
Идентификатор кодека                     : M4B  (M4B /mp42/isom)
Размер файла                             : 221 Мбайт
Продолжительность                        : 7 ч. 44 м.
Режим общего битрейта                    : Переменный
Общий поток                              : 66,5 Кбит/сек
Альбом                                   : Миры Хайнлайна
Альбом/Исполнитель                       : Роберт Хайнлайн
Часть/Положение                          : 11
Часть/Всего                              : 11
Трек                                     : Миры Хайнлайна 11
Исполнитель                              : Роберт Хайнлайн
Издатель                                 : Своими руками
Жанр                                     : Фантастика
Дата записи                              : 2019
Дата кодирования                         : UTC 2019-05-12 13:37:36
Дата пометки                             : UTC 2019-05-12 16:39:51
Обложка                                  : Yes
art                                      : Роберт Хайнлайн

Аудио
Идентификатор                            : 1
Формат                                   : AAC LC
Формат/Информация                        : Advanced Audio Codec Low Complexity
Идентификатор кодека                     : mp4a-40-2
Продолжительность                        : 7 ч. 44 м.
Вид битрейта                             : Переменный
Битрейт                                  : 64,0 Кбит/сек
Максимальный битрейт                     : 78,0 Кбит/сек
Каналы                                   : 2 канала
Channel layout                           : L R
Частота                                  : 24,0 КГц
Частота кадров                           : 23,438 кадра/сек (1024 SPF)
Метод сжатия                             : С потерями
Размер потока                            : 218 Мбайт (99%)
Дата кодирования                         : UTC 2019-05-12 13:37:36
Дата пометки                             : UTC 2019-05-12 16:39:51
Menus                                    : 2

Меню
Идентификатор                            : 2
Идентификатор кодека                     : text
Продолжительность                        : 7 ч. 44 м.
Язык                                     : English
Дата кодирования                         : UTC 2019-05-12 17:54:10
Дата пометки                             : UTC 2019-05-12 17:54:10
Menu For                                 : 1
Duration_FirstFrame                      : 7529088
00:00:00.000                             : 1966. Луна жестко стелет Книга 2 Шантрапа – не подступись
04:54:49.770                             : 1966. Луна жестко стелет Книга 3 Элдээнбэ!
Вид битрейта                             : VBR

[NNM-Club.me]_Miryi Haynlayna.torrent
 Торрент: Платиновая раздача  Зарегистрирован
 
Скачать


Примагнититься
 Зарегистрирован:   13 Май 2019 07:58:39
 Размер:   3,95 GB  (
 Рейтинг:   4,9 (Голосов: 27)
 Поблагодарили:   124
 Проверка:   Оформление проверено модератором 13 Май 2019 11:56:21
WebMoney кошелек: R662717423455
Как cкачать  ·  Как раздать  ·  Правильно оформить  ·  Поднять ратио!  
oalexx
Стаж: 6 лет 5 мес.
Сообщений: 171
Ratio: 5,573
74.78%
wow! оригинально, thx!
Pavelqq
Стаж: 6 лет
Сообщений: 59
Ratio: 2,334
100%
А в mp3 будет?
trybag ®
Стаж: 6 лет 5 мес.
Сообщений: 187
Ratio: 15,116
Поблагодарили: 5856
100%
Pavelqq писал(а): Перейти к сообщению
А в mp3 будет?

Это сделано из MP3, ищите на просторах инета.
Показать сообщения:   
Начать новую тему   Ответить на тему    Торрент-трекер NNM-Club -> Аудио и Видео -> Аудиокниги (AAC) Часовой пояс: GMT + 3
Страница 1 из 1