Классический форум-трекер
canvas not supported
Нас вместе: 4 078 949

Дэвид Вебер | Флагман в изгнании (2019) [M4B|AAC]


 
 
RSS
Начать новую тему   Ответить на тему    Торрент-трекер NNM-Club -> Аудио и Видео -> Аудиокниги (AAC)
Автор Сообщение
trybag ®
Стаж: 6 лет 6 мес.
Сообщений: 200
Ratio: 15,245
Поблагодарили: 6117
100%
Дэвид Вебер | Флагман в изгнании
Автор: Дэвид Вебер
Год: 2019
Жанр: Фантастика
Продолжительность: 15:44:58
Читает: Владимир Князев
Издательство: Аудиокниги Владимира Князева

Описание: Капитан Виктория Харрингтон, лишенная корабля и фактически изгнанная с Мантикоры, вынуждена заниматься политикой на планете Грейсон. Врожденное чувство долга заставляет ее возглавить местный космический флот. И вовремя! Безопасность планеты, расположенной, казалось бы, далеко от театра боевых действий, — всего лишь иллюзия.

Формат: M4B
Аудиокодек: AAC
Битрейт: 192 kbps
Частота: 44,1 KHz
Разбивка на главы: есть
Вшитая обложка: есть
Музыкальное сопровождение: есть

1. Космическая станция «Василиск» / On Basilisk Station (1993)
2. Честь королевы / The Honor of the Queen (1994)
3. Маленькая победоносная война / The Short Victorious War (1994)
4. Поле бесчестья / Field of Dishonor (1994)
5. Флагман в изгнании / Flag in Exile (1995)
6. Меж двух огней / Honor Among Enemies (1996)
7. В руках врага / In Enemy Hands (1997)
8. Испытание Адом / Echoes of Honor (1998)
9. Пепел победы / Ashes of Victory (2001)
10. Война и честь / War of Honor (2002)
11. Любой ценой / At All Costs (2005)
12. Дело чести / Mission of Honor (2010)

Код: выделить все
Общее
Полное имя                               : Флагман в изгнании 1.m4b
Формат                                   : MPEG-4
Профиль формата                          : Apple audio with iTunes position
Идентификатор кодека                     : M4B  (M4B /mp42/isom)
Размер файла                             : 652 Мбайт
Продолжительность                        : 7 ч. 43 м.
Режим общего битрейта                    : Переменный
Общий поток                              : 196 Кбит/сек
Альбом                                   : Хонор Харрингтон
Альбом/Исполнитель                       : Дэвид Вебер
Часть/Положение                          : 5
Часть/Всего                              : 12
Трек                                     : Флагман в изгнании 1
Трек/Положение                           : 1
Трек/Всего                               : 2
Исполнитель                              : Дэвид Вебер
Композитор                               : Владимир Князев
Издатель                                 : Аудиокниги Владимира Князева
Жанр                                     : Фантастика
Дата записи                              : 2019
Дата кодирования                         : UTC 2019-05-26 05:27:17
Дата пометки                             : UTC 2019-05-26 06:15:31
Обложка                                  : Yes
art                                      :  Дэвид Вебер

Аудио
Идентификатор                            : 1
Формат                                   : AAC LC
Формат/Информация                        : Advanced Audio Codec Low Complexity
Идентификатор кодека                     : mp4a-40-2
Продолжительность                        : 7 ч. 43 м.
Вид битрейта                             : Переменный
Битрейт                                  : 192 Кбит/сек
Максимальный битрейт                     : 267 Кбит/сек
Каналы                                   : 2 канала
Channel layout                           : L R
Частота                                  : 44,1 КГц
Частота кадров                           : 43,066 кадра/сек (1024 SPF)
Метод сжатия                             : С потерями
Размер потока                            : 646 Мбайт (99%)
Дата кодирования                         : UTC 2019-05-26 05:27:17
Дата пометки                             : UTC 2019-05-26 06:15:31
Menus                                    : 2

Меню
Идентификатор                            : 2
Идентификатор кодека                     : text
Продолжительность                        : 7 ч. 43 м.
Язык                                     : English
Дата кодирования                         : UTC 2019-05-26 10:06:29
Дата пометки                             : UTC 2019-05-26 10:06:29
Menu For                                 : 1
00:00:00.000                             : Пролог
00:21:51.811                             : Глава 1
00:43:44.435                             : Глава 2
01:14:04.554                             : Глава 3
01:32:37.440                             : Глава 4
01:42:23.187                             : Глава 5
02:23:22.203                             : Глава 6
02:53:00.457                             : Глава 7
03:20:32.487                             : Глава 8
04:01:31.132                             : Глава 9
04:38:29.032                             : Глава 10
05:16:18.736                             : Глава 11
05:37:56.453                             : Глава 12
06:03:48.567                             : Глава 13
06:40:15.771                             : Глава 14
07:10:19.637                             : Глава 15
Вид битрейта                             : VBR

Общее
Полное имя                               : Флагман в изгнании 2.m4b
Формат                                   : MPEG-4
Профиль формата                          : Apple audio with iTunes position
Идентификатор кодека                     : M4B  (M4B /mp42/isom)
Размер файла                             : 660 Мбайт
Продолжительность                        : 8 ч. 1 м.
Режим общего битрейта                    : Переменный
Общий поток                              : 192 Кбит/сек
Альбом                                   : Хонор Харрингтон
Альбом/Исполнитель                       : Дэвид Вебер
Часть/Положение                          : 5
Часть/Всего                              : 12
Трек                                     : Флагман в изгнании 2
Трек/Положение                           : 2
Трек/Всего                               : 2
Исполнитель                              : Дэвид Вебер
Композитор                               : Владимир Князев
Издатель                                 : Аудиокниги Владимира Князева
Жанр                                     : Фантастика
Дата записи                              : 2019
Дата кодирования                         : UTC 2019-05-26 05:46:10
Дата пометки                             : UTC 2019-05-26 06:15:40
Обложка                                  : Yes
art                                      :  Дэвид Вебер

Аудио
Идентификатор                            : 1
Формат                                   : AAC LC
Формат/Информация                        : Advanced Audio Codec Low Complexity
Идентификатор кодека                     : mp4a-40-2
Продолжительность                        : 8 ч. 1 м.
Продолжительность оригинала              : 8 ч. 1 м.
Вид битрейта                             : Переменный
Битрейт                                  : 192 Кбит/сек
Максимальный битрейт                     : 275 Кбит/сек
Каналы                                   : 2 канала
Channel layout                           : L R
Частота                                  : 44,1 КГц
Частота кадров                           : 43,066 кадра/сек (1024 SPF)
Метод сжатия                             : С потерями
Размер потока                            : 654 Мбайт (99%)
Размер потока оригинала                  : 654 Мбайт (99%)
Дата кодирования                         : UTC 2019-05-26 05:46:10
Дата пометки                             : UTC 2019-05-26 06:15:40
Menus                                    : 2

Меню
Идентификатор                            : 2
Идентификатор кодека                     : text
Продолжительность                        : 8 ч. 1 м.
Язык                                     : English
Дата кодирования                         : UTC 2019-05-26 10:07:08
Дата пометки                             : UTC 2019-05-26 10:07:08
Menu For                                 : 1
Продолжительность оригинала              : 28871762
Количество кадров оригинала              : 20
Размер потока оригинала                  : 540
Счётчик кадров                           : 20
Размер потока                            : 540
00:00:00.000                             : Глава 16
00:39:20.494                             : Глава 17
01:09:48.113                             : Глава 18
01:24:55.758                             : Глава 19
01:44:27.135                             : Глава 20
02:08:06.896                             : Глава 21
02:37:47.310                             : Глава 22
03:06:33.690                             : Глава 23
03:28:01.004                             : Глава 24
03:45:30.569                             : Глава 25
04:01:49.731                             : Глава 26
04:31:43.496                             : Глава 27
04:57:12.065                             : Глава 28
05:07:46.272                             : Глава 29
05:48:55.900                             : Глава 30
06:09:26.418                             : Глава 31
06:30:46.906                             : Глава 32
06:56:15.104                             : Глава 33
07:16:21.937                             : Глава 34
07:51:35.371                             : Глава 35
Вид битрейта                             : VBR

[NNM-Club.me]_Flagman v izgnanii.torrent
 Торрент: Платиновая раздача  Зарегистрирован
 
Скачать


Примагнититься
 Зарегистрирован:   26 Май 2019 09:46:00
 Размер:   1,28 GB  (
 Рейтинг:    (Голосов: 5)
 Поблагодарили:   31
 Проверка:   Оформление проверено модератором 27 Май 2019 08:50:35
WebMoney кошелек: R662717423455
Как cкачать  ·  Как раздать  ·  Правильно оформить  ·  Поднять ратио!  
Загрузка...
Показать сообщения:   
Начать новую тему   Ответить на тему    Торрент-трекер NNM-Club -> Аудио и Видео -> Аудиокниги (AAC) Часовой пояс: GMT + 3
Страница 1 из 1