Классический форум-трекер
canvas not supported
Нас вместе: 4 077 965

Blame! / Блам! [2017, Movie] BDRemux 1080p Raw+Rus


 
 
RSS
Начать новую тему   Ответить на тему    Торрент-трекер NNM-Club -> Аниме разное -> Аниме Blu-ray, Remux
Автор Сообщение
хИНАРИх ®
Uploader 100+
Стаж: 2 года 8 мес.
Сообщений: 232
Ratio: 10K
Раздал: 158,5 TB
Поблагодарили: 4514
99.65%
roody.gif
Blame! / Блам!
Жанр: фантастика, киберпанк
Тип: Полнометражный фильм
Продолжительность: 1:45:33
Период выхода: 20.05.2017
Производство: Polygon Pictures
Автор оригинала: Нихэй Цутому
Снято по манге: Blame!
Режиссер: Сэсита Хироюки
Ссылки: World-Art, Ani-DB, Официальный сайт, ANN, MAL
Описание:
Далёкое будущее. После распространения инфекции люди теряют связь с сетевой сферой. Из под контроля выходят роботы-строители и стражники. Строители бесконтрольно перестраивают город, стражники объявляют жителей города вне закона и принимаются за их истребление. Группе людей удаётся выжить в одном поселении благодаря периметру, за который стражникам не пройти. Однако отсутствие пищи заставляет людей время от времени покидать безопасное укрытие и отправляться на поиски пропитания. Однажды один из отрядов встречает чужестранца по имени Килли. Он ищет геном сетевого терминала, чтобы с его помощью вернуть людям власть над машинами.
Качество видео: BDRemux
Видео: AVC, 8 bit, 1920x1080, ~24.4 Mbps
Аудио 1: TrueHD, 8 ch, 48 kHz, 3940 Kbps | Звук: Японский
Аудио 2: AC-3, 6 ch, 48 kHz, 640 Kbps | Звук: Японский
Аудио 3: PCM, 2 ch, 48 kHz, 2304 Kbps | Звук: Японский
Аудио 4: FLAC, 6 ch, 48 kHz, 671 Kbps | Звук: Русский - [AlexFilm]
Аудио 5: PCM, 2 ch, 48 kHz, 2304 Kbps | Звук: Русский - [AniDub]
Субтитры: Русские
Перевод 1: [AniPlague & YakuSub]
Перевод 2: [Izakaya]
Перевод 3: [Stan WarHammer & Nesitach]

General
Unique ID : 61993752456898143394388501449197771422 (0x2EA38FFAE62DC5497A36ACCB77705A9E)
Complete name : Blame! [2017 BDRemux 1080p Raw+Rus].mkv
Format : Matroska
Format version : Version 4
File size : 25.3 GiB
Duration : 1 h 45 min
Overall bit rate mode : Variable
Overall bit rate : 34.3 Mb/s
Encoded date : UTC 2019-06-04 04:51:38
Writing application : mkvmerge v34.0.0 ('Sight and Seen') 64-bit
Writing library : libebml v1.3.7 + libmatroska v1.5.0

Video
ID : 1
Format : AVC
Format/Info : Advanced Video Codec
Format profile : High@L4.1
Format settings : CABAC / 4 Ref Frames
Format settings, CABAC : Yes
Format settings, Reference : 4 frames
Codec ID : V_MPEG4/ISO/AVC
Duration : 1 h 45 min
Bit rate mode : Variable
Bit rate : 24.4 Mb/s
Maximum bit rate : 26.0 Mb/s
Width : 1 920 pixels
Height : 1 080 pixels
Display aspect ratio : 16:9
Frame rate mode : Constant
Frame rate : 23.976 (24000/1001) FPS
Color space : YUV
Chroma subsampling : 4:2:0
Bit depth : 8 bits
Scan type : Progressive
Bits/(Pixel*Frame) : 0.490
Stream size : 18.0 GiB (71%)
Default : Yes
Forced : No
Color range : Limited
Color primaries : BT.709
Transfer characteristics : BT.709
Matrix coefficients : BT.709

Audio #1
ID : 2
Format : MLP FBA 16-ch
Format/Info : Meridian Lossless Packing FBA with 16-channel presentation
Commercial name : Dolby TrueHD with Dolby Atmos
Codec ID : A_TRUEHD
Duration : 1 h 45 min
Bit rate mode : Variable
Bit rate : 3 940 kb/s
Maximum bit rate : 8 019 kb/s
Channel(s) : 8 channels
Channel layout : L R C LFE Ls Rs Lb Rb
Sampling rate : 48.0 kHz
Frame rate : 1 200.000 FPS (40 SPF)
Compression mode : Lossless
Stream size : 2.91 GiB (11%)
Title : TrueHD
Language : Japanese
Default : Yes
Forced : No
Number of dynamic objects : 11
Bed channel count : 1 channel
Bed channel configuration : LFE

Audio #2
ID : 3
Format : AC-3
Format/Info : Audio Coding 3
Commercial name : Dolby Digital
Codec ID : A_AC3
Duration : 1 h 45 min
Bit rate mode : Constant
Bit rate : 640 kb/s
Channel(s) : 6 channels
Channel layout : L R C LFE Ls Rs
Sampling rate : 48.0 kHz
Frame rate : 31.250 FPS (1536 SPF)
Bit depth : 16 bits
Compression mode : Lossy
Stream size : 483 MiB (2%)
Title : AC-3
Language : Japanese
Service kind : Complete Main
Default : No
Forced : No

Audio #3
ID : 4
Format : PCM
Format settings : Little / Signed
Codec ID : A_PCM/INT/LIT
Duration : 1 h 45 min
Bit rate mode : Constant
Bit rate : 2 304 kb/s
Channel(s) : 2 channels
Sampling rate : 48.0 kHz
Frame rate : 200.000 FPS (240 SPF)
Bit depth : 24 bits
Stream size : 1.70 GiB (7%)
Title : PCM
Language : Japanese
Default : No
Forced : No

Audio #4
ID : 5
Format : FLAC
Format/Info : Free Lossless Audio Codec
Codec ID : A_FLAC
Duration : 1 h 45 min
Bit rate mode : Variable
Bit rate : 671 kb/s
Channel(s) : 6 channels
Channel layout : L R C LFE Ls Rs
Sampling rate : 48.0 kHz
Frame rate : 11.719 FPS (4096 SPF)
Bit depth : 16 bits
Compression mode : Lossless
Stream size : 506 MiB (2%)
Title : [AlexFilm] 5.1
Writing library : libFLAC 1.3.2 (UTC 2017-01-01)
Language : Russian
Default : No
Forced : No

Audio #5
ID : 6
Format : PCM
Format settings : Little / Signed
Codec ID : A_PCM/INT/LIT
Duration : 1 h 45 min
Bit rate mode : Constant
Bit rate : 2 304 kb/s
Channel(s) : 2 channels
Sampling rate : 48.0 kHz
Frame rate : 32.000 FPS (1500 SPF)
Bit depth : 24 bits
Stream size : 1.70 GiB (7%)
Title : [AniDub] 2.0
Language : Russian
Default : No
Forced : No

Menu
00:00:00.000 : :Глава 01
00:00:28.028 : :Глава 02
00:01:19.204 : :Глава 03
00:15:35.100 : :Глава 04
00:18:36.323 : :Глава 05
00:26:44.144 : :Глава 06
00:38:24.969 : :Глава 07
00:42:19.745 : :Глава 08
00:47:21.338 : :Глава 09
00:49:19.831 : :Глава 10
00:56:30.178 : :Глава 11
00:59:54.966 : :Глава 12
01:02:16.607 : :Глава 13
01:08:22.932 : :Глава 14
01:11:00.673 : :Глава 15
01:14:38.265 : :Глава 16
01:17:49.414 : :Глава 17
01:24:10.295 : :Глава 18
01:28:12.912 : :Глава 19
01:37:03.818 : :Глава 20
01:38:39.830 : :Глава 21



Время раздачи: круглосуточно
[NNM-Club.me]_Blame! [Fil'm 2017].torrent
 Торрент: Платиновая раздача  Зарегистрирован
 
Скачать


Примагнититься
 Зарегистрирован:   04 Июн 2019 09:33:06
 Размер:   25,9 GB  (
 Рейтинг:   4,7 (Голосов: 23)
 Поблагодарили:   50
 Проверка:   Оформление проверено модератором 04 Июн 2019 10:56:04
Как cкачать  ·  Как раздать  ·  Правильно оформить  ·  Поднять ратио!  
хИНАРИх ®
Uploader 100+
Стаж: 2 года 8 мес.
Сообщений: 232
Ratio: 10K
Раздал: 158,5 TB
Поблагодарили: 4514
99.65%
roody.gif
Отличия от этой раздачи:
Наличие субтитров
Доп. Материалы
Не убрано разделение на главы
xBaBaYKAx
Стаж: 4 года 2 мес.
Сообщений: 46
Ratio: 53,522
Поблагодарили: 555
100%
pirates.png
хИНАРИх
Качество видео: BDRip Что оно делает в Аниме Blu-ray, Remux тогда?
Цитата:
Аудио 4: FLAC, 6 ch, 48 kHz, 671 Kbps | Звук: Русский
Аудио 5: PCM, 2 ch, 48 kHz, 2304 Kbps | Звук: Русский

Варианты есть узнать чья озвучка?
Не ожидал, пересобрать мою раздачу(если не так то извините) добавив в неё пару субтитров и картинки....и сразу новая версия :)
хИНАРИх ®
Uploader 100+
Стаж: 2 года 8 мес.
Сообщений: 232
Ratio: 10K
Раздал: 158,5 TB
Поблагодарили: 4514
99.65%
roody.gif
xBaBaYKAx писал(а): Перейти к сообщению
хИНАРИх
Качество видео: BDRip Что оно делает в Аниме Blu-ray, Remux тогда?
Цитата:
Аудио 4: FLAC, 6 ch, 48 kHz, 671 Kbps | Звук: Русский
Аудио 5: PCM, 2 ch, 48 kHz, 2304 Kbps | Звук: Русский

Варианты есть узнать чья озвучка?
Не ожидал, пересобрать мою раздачу(если не так то извините) добавив в неё пару субтитров и картинки....и сразу новая версия :)


Про BDRip это косяк. Тут Remux - исправлено
Про озвучку - исправлено
Кто вам мешал добавить субтитры? Никто
Ремукс сделан с диска с nyaa.

Сейчас раздача подходит всем и любителям озвучки, и тем, кто смотрит с субтитрами.
xBaBaYKAx
Стаж: 4 года 2 мес.
Сообщений: 46
Ratio: 53,522
Поблагодарили: 555
100%
pirates.png
хИНАРИх
Про название забыли... Blame! / Блам! [2010, Movie] BDRemux 1080p Raw+Rus

 !  Примечание от ElSwanko:
Спасибо, fixed
Показать сообщения:   
Начать новую тему   Ответить на тему    Торрент-трекер NNM-Club -> Аниме разное -> Аниме Blu-ray, Remux Часовой пояс: GMT + 3
Страница 1 из 1