Классический форум-трекер
canvas not supported
Нас вместе: 4 079 197

Ansatsu Kyoushitsu OVA / Assassination Classroom OVA / Класс убийц [2013, OVA, 1 эп. + 1 Sp.] DVDRip 540p Raw


 
 
RSS
Начать новую тему   Ответить на тему    Торрент-трекер NNM-Club -> Аниме с субтитрами -> Аниме (SD)
Автор Сообщение
хИНАРИх ®
Uploader 100+
Стаж: 2 года 9 мес.
Сообщений: 237
Ratio: 10K
Раздал: 160,4 TB
Поблагодарили: 4717
100%
roody.gif
Ansatsu Kyoushitsu OVA / Assassination Classroom OVA / Класс убийц
Жанр: приключения, комедия, сёнэн
Тип: OVA
Количество серий: 1 + 1Sp
Продолжительность: 35 минут + 10 минут
Период выхода: 06.10.2013
Производство: Brains Base
Режиссер: Гото Кэйдзи
Снято по манге: Ansatsu Kyoushitsu
Автор оригинала: Мацуи Юсэй
Ссылки: World-Art, Ani-DB, ANN, MAL
Описание: История начинается с того, что некая могущественная форма жизни подорвала Луну, в результате чего 70% её поверхности разлетелись по всему космическому пространству. Это странное существо, могло передвигаться со сверхзвуковой скоростью, а вместо рук у него были щупальца. За его голову было назначено огромное вознаграждение – 100 миллионов долларов США, но из-за очень быстрой регенерации, убить его до сих пор никто не смог.
По неизвестным человечеству причинам это существо становится учителем в одной средней школе. И теперь ученики его класса должны убить своего классного руководителя, или же он по завершении учебного года уничтожит Землю.

OVA транслировалась во время Jump Super Anime Tour 2013, а Special был показан на Jump Special Anime Festa 2014 и вышел в составе Blu-ray и DVD.
Качество видео: DVDRip
Видео: AVC, 8bit, 960x540, 619 Kbps
Аудио: AAC, 2 ch, 48 kHz, 192 kbps | Звук: Японский
Субтитры: Русские
Перевод от OVA: [Vii]
Перевод от Special: [Werebeast]

General
Unique ID : 192485177829305212269575986895024469096 (0x90CF4BF9FC1F25B98594E4EB1ACAB468)
Complete name : Ansatsu Kyoushitsu (OVA).mkv
Format : Matroska
Format version : Version 4
File size : 185 MiB
Duration : 31 min 45 s
Overall bit rate : 815 kb/s
Encoded date : UTC 2019-06-17 00:29:08
Writing application : mkvmerge v34.0.0 ('Sight and Seen') 64-bit
Writing library : libebml v1.3.7 + libmatroska v1.5.0

Video
ID : 1
Format : AVC
Format/Info : Advanced Video Codec
Format profile : High@L4.1
Format settings : CABAC / 6 Ref Frames
Format settings, CABAC : Yes
Format settings, Reference : 6 frames
Codec ID : V_MPEG4/ISO/AVC
Duration : 31 min 45 s
Bit rate : 619 kb/s
Width : 960 pixels
Height : 540 pixels
Display aspect ratio : 16:9
Frame rate mode : Constant
Frame rate : 23.976 (24000/1001) FPS
Color space : YUV
Chroma subsampling : 4:2:0
Bit depth : 8 bits
Scan type : Progressive
Bits/(Pixel*Frame) : 0.050
Stream size : 141 MiB (76%)
Writing library : x264 core 140 r2377+40 929f149 tMod [8-bit@all X86]
Encoding settings : cabac=1 / ref=6 / deblock=1:1:1 / analyse=0x3:0x113 / me=hex / subme=7 / psy=1 / fade_compensate=0.00 / psy_rd=0.40:0.00 / mixed_ref=1 / me_range=16 / chroma_me=1 / trellis=1 / 8x8dct=1 / cqm=0 / deadzone=21,11 / fast_pskip=1 / chroma_qp_offset=-2 / threads=12 / lookahead_threads=2 / sliced_threads=0 / nr=0 / decimate=1 / interlaced=0 / bluray_compat=0 / constrained_intra=0 / fgo=0 / bframes=5 / b_pyramid=2 / b_adapt=1 / b_bias=0 / direct=1 / weightb=1 / open_gop=0 / weightp=2 / keyint=240 / keyint_min=1 / scenecut=40 / intra_refresh=0 / rc_lookahead=40 / rc=crf / mbtree=1 / crf=20.0000 / qcomp=0.60 / qpmin=0:0:0 / qpmax=69:69:69 / qpstep=4 / ip_ratio=1.40 / aq=1:0.50 / aq-sensitivity=10.00 / aq-factor=1.00:1.00:1.00 / aq2=0 / aq3=0
Default : Yes
Forced : No

Audio
ID : 2
Format : AAC LC
Format/Info : Advanced Audio Codec Low Complexity
Codec ID : A_AAC-2
Duration : 31 min 45 s
Bit rate : 192 kb/s
Channel(s) : 2 channels
Channel layout : L R
Sampling rate : 48.0 kHz
Frame rate : 46.875 FPS (1024 SPF)
Compression mode : Lossy
Stream size : 43.9 MiB (24%)
Title : Jap
Language : Japanese
Default : No
Forced : No

Text
ID : 3
Format : ASS
Codec ID : S_TEXT/ASS
Codec ID/Info : Advanced Sub Station Alpha
Duration : 30 min 10 s
Bit rate : 244 b/s
Count of elements : 546
Compression mode : Lossless
Stream size : 54.0 KiB (0%)
Title : Rus
Language : Russian
Default : No
Forced : No
General
Unique ID : 111141645330704810667599228089036858473 (0x539D1A2F17E3C0DD614A249042466469)
Complete name : Assassination Classroom - Episode 0.mkv
Format : Matroska
Format version : Version 4
File size : 523 MiB
Duration : 9 min 54 s
Overall bit rate : 7 373 kb/s
Encoded date : UTC 2019-06-17 00:49:31
Writing application : mkvmerge v34.0.0 ('Sight and Seen') 64-bit
Writing library : libebml v1.3.7 + libmatroska v1.5.0

Video
ID : 1
Format : AVC
Format/Info : Advanced Video Codec
Format profile : High@L4.1
Format settings : CABAC / 5 Ref Frames
Format settings, CABAC : Yes
Format settings, Reference : 5 frames
Codec ID : V_MPEG4/ISO/AVC
Duration : 9 min 54 s
Bit rate : 7 121 kb/s
Width : 1 280 pixels
Height : 720 pixels
Display aspect ratio : 16:9
Frame rate mode : Constant
Frame rate : 23.976 (24000/1001) FPS
Color space : YUV
Chroma subsampling : 4:2:0
Bit depth : 8 bits
Scan type : Progressive
Bits/(Pixel*Frame) : 0.322
Stream size : 505 MiB (97%)
Writing library : x264 core 146 r2538 121396c
Encoding settings : cabac=1 / ref=5 / deblock=1:0:0 / analyse=0x3:0x133 / me=umh / subme=9 / psy=1 / psy_rd=0.80:0.00 / mixed_ref=1 / me_range=32 / chroma_me=1 / trellis=2 / 8x8dct=1 / cqm=0 / deadzone=21,11 / fast_pskip=1 / chroma_qp_offset=-4 / threads=4 / lookahead_threads=1 / sliced_threads=0 / nr=0 / decimate=0 / interlaced=0 / bluray_compat=0 / constrained_intra=0 / bframes=5 / b_pyramid=2 / b_adapt=2 / b_bias=0 / direct=1 / weightb=1 / open_gop=0 / weightp=2 / keyint=240 / keyint_min=23 / scenecut=40 / intra_refresh=0 / rc_lookahead=50 / rc=crf / mbtree=1 / crf=15.0 / qcomp=0.70 / qpmin=10 / qpmax=42 / qpstep=4 / vbv_maxrate=50000 / vbv_bufsize=50000 / crf_max=0.0 / nal_hrd=none / filler=0 / ip_ratio=1.40 / aq=1:0.90
Default : Yes
Forced : No

Audio
ID : 2
Format : AAC LC
Format/Info : Advanced Audio Codec Low Complexity
Codec ID : A_AAC-2
Duration : 9 min 54 s
Bit rate : 249 kb/s
Channel(s) : 2 channels
Channel layout : L R
Sampling rate : 48.0 kHz
Frame rate : 46.875 FPS (1024 SPF)
Compression mode : Lossy
Delay relative to video : 9 ms
Stream size : 17.7 MiB (3%)
Title : Jap
Language : Japanese
Default : Yes
Forced : No

Text
ID : 3
Format : ASS
Codec ID : S_TEXT/ASS
Codec ID/Info : Advanced Sub Station Alpha
Duration : 6 min 52 s
Bit rate : 164 b/s
Count of elements : 99
Compression mode : Lossless
Stream size : 8.27 KiB (0%)
Title : Rus
Default : Yes
Forced : No
01. OVA
02. Special - Meeting Time
01. Класс убийц OVA - OVA (1 эп.), адаптация манги, 2013
02. Класс убийц [ТВ-1] - ТВ (22 эп. + спэшл), адаптация манги, 2015
03. Класс убийц [ТВ-2] - ТВ (25 эп.), продолжение, 2016

Скриншоты OVA:

Скриншоты Special:


Время раздачи: круглосуточно
[NNM-Club.me]_Ansatsu Kyoushitsu OVA + 2Sp - [Klass ubiyts OVA + 2Sp].torrent
 Торрент: Платиновая раздача  Зарегистрирован
 
Скачать


Примагнититься
 Зарегистрирован:   17 Июн 2019 04:07:11
 Размер:   708 MB  (
 Рейтинг:    (Голосов: 8)
 Поблагодарили:   16
 Проверка:   Оформление проверено модератором 17 Июн 2019 07:43:00
Как cкачать  ·  Как раздать  ·  Правильно оформить  ·  Поднять ратио!  
Показать сообщения:   
Начать новую тему   Ответить на тему    Торрент-трекер NNM-Club -> Аниме с субтитрами -> Аниме (SD) Часовой пояс: GMT + 3
Страница 1 из 1