Классический форум-трекер
canvas not supported
Нас вместе: 4 079 120

Dr. Stone / Доктор Стоун [2019, TV, 14 из 24] WEB-DL 1080p Rus


 
 
RSS
Начать новую тему   Ответить на тему    Торрент-трекер NNM-Club -> Аниме с озвучкой -> Онгоинги с озвучкой
Автор Сообщение
Ampho_DnB ®
RG Аниме
Uploader 100+
 
Стаж: 7 лет 8 мес.
Сообщений: 3718
Ratio: 323,117
Поблагодарили: 86661
100%
Откуда: дует?
roody.gif
Dr. Stone / Доктор Стоун
Жанр: приключения, комедия, драма
Тип: TV-сериал
Продолжительность: 14 из 24 эпизодов по 25 минут
Выпуск: c 05.07.2019
Автор: Инагаки Ритиро
Снято по манге: Dr. Stone
Режиссер: Ино Синъя
Производство: TMS
Информационные ссылки: AniDB || World Art || MAL || ANN
Релиз подготовлен группой AniPlague
  • Тип озвучки: Многоголосая, закадровая

Описание:
В начале XXI века из-за таинственной катастрофы всё человеческое население Земли единовременно окаменело! И лишь по прошествии тысячелетий в результате невероятного сочетания непонятных условий к жизни вернулся молодой гений Сенку. Ну а будучи человеком с научным складом ума, Сенку поставил перед собой три цели: выяснить, что приводит к снятию окаменения, возродить цивилизацию и выжить в мире, не знавшем человека более трёх тысяч лет. Достичь их становится проще, когда через полгода после пробуждения Сенку — 5 октября 5738-го — к жизни возвращается его одноклассник Тайдзю. С умом Сенку, силой Тайдзю и их общим упорством (ещё бы! Они были в сознании все эти тысячи лет — и не сошли с ума!) эти двое могут надеяться возродить человечество. Перед окаменением Тайдзю собирался признаться в истинных чувствах подруге детства Юдзурихе, и ради любви он вернёт её к жизни… с помощью Сенку, конечно же.
Качество: WEB-DLRip | Энкод: HorribleSubs
Язык озвучки: Японский и Русский
Формат: MKV
Видео: x264, 1920x1080, ~5 282 kbps, 23.976 fps
Аудио: AAC, 128 kbps, 44.1 kHz, 2 ch
Аудио: AAC, 192 kbps, 48.0 kHz, 2 ch
01. Каменный мир
02. Владыка каменного мира
03. Оружие науки
04. Зажечь сигнальный костёр
05. Начало каменного мира
06. Две страны каменного мира
07. Где находятся два миллиона лет
08. Каменная тропа
09. Я зажгу светило науки
10. Шаткий союз
11. Отчетливый мир
12. Друзья спиной друг к другу
13. Воин в маске
14. Повелитель огня
General
Unique ID : 36388992381606827331263068037688699974 (0x1B6043D78614FE29A5596DC48D5DAC46)
Complete name : Dr. Stone [AniPlague]\[AniPlague] Dr. Stone - 01 [1080p].mkv
Format : Matroska
Format version : Version 4
File size : 966 MiB
Duration : 24 min 6 s
Overall bit rate : 5 605 kb/s
Encoded date : UTC 2019-08-24 19:27:15
Writing application : mkvmerge v36.0.0 ('Is That Jazz?') 64-bit
Writing library : libebml v1.3.9 + libmatroska v1.5.2

Video
ID : 1
Format : AVC
Format/Info : Advanced Video Codec
Format profile : High@L4
Format settings : CABAC / 4 Ref Frames
Format settings, CABAC : Yes
Format settings, Reference : 4 frames
Codec ID : V_MPEG4/ISO/AVC
Duration : 24 min 6 s
Bit rate : 5 282 kb/s
Width : 1 920 pixels
Height : 1 080 pixels
Display aspect ratio : 16:9
Frame rate mode : Constant
Frame rate : 23.976 (24000/1001) FPS
Color space : YUV
Chroma subsampling : 4:2:0
Bit depth : 8 bits
Scan type : Progressive
Bits/(Pixel*Frame) : 0.106
Stream size : 911 MiB (94%)
Writing library : x264 core 142
Encoding settings : cabac=1 / ref=4 / deblock=1:1:1 / analyse=0x3:0x113 / me=umh / subme=8 / psy=1 / psy_rd=0.40:0.00 / mixed_ref=1 / me_range=16 / chroma_me=1 / trellis=1 / 8x8dct=1 / cqm=0 / deadzone=21,11 / fast_pskip=1 / chroma_qp_offset=-2 / threads=12 / lookahead_threads=2 / sliced_threads=0 / nr=0 / decimate=1 / interlaced=0 / bluray_compat=0 / constrained_intra=0 / bframes=3 / b_pyramid=2 / b_adapt=2 / b_bias=0 / direct=3 / weightb=1 / open_gop=0 / weightp=2 / keyint=96 / keyint_min=48 / scenecut=40 / intra_refresh=0 / rc_lookahead=48 / rc=crf / mbtree=1 / crf=15.0 / qcomp=0.60 / qpmin=0 / qpmax=69 / qpstep=4 / vbv_maxrate=8000 / vbv_bufsize=12000 / crf_max=0.0 / nal_hrd=none / filler=0 / ip_ratio=1.40 / aq=1:0.60
Default : Yes
Forced : No

Audio #1
ID : 2
Format : AAC LC
Format/Info : Advanced Audio Codec Low Complexity
Codec ID : A_AAC-2
Duration : 24 min 6 s
Bit rate : 192 kb/s
Channel(s) : 2 channels
Channel layout : L R
Sampling rate : 48.0 kHz
Frame rate : 46.875 FPS (1024 SPF)
Compression mode : Lossy
Delay relative to video : -83 ms
Stream size : 33.2 MiB (3%)
Language : Russian
Default : Yes
Forced : No

Audio #2
ID : 3
Format : AAC LC
Format/Info : Advanced Audio Codec Low Complexity
Codec ID : A_AAC-2
Duration : 24 min 6 s
Bit rate : 128 kb/s
Channel(s) : 2 channels
Channel layout : L R
Sampling rate : 44.1 kHz
Frame rate : 43.066 FPS (1024 SPF)
Compression mode : Lossy
Delay relative to video : -83 ms
Stream size : 22.1 MiB (2%)
Language : Japanese
Default : No
Forced : No


Время раздачи: До первых сидов
[NNMClub.to]_Dr. Stone [AniPlague].torrent
 Торрент:   Зарегистрирован
 
Зарегистрируйтесь и скачайте торрент!
86,2 KB

Примагнититься
 Зарегистрирован:   11 Окт 2019 07:54:25
 Размер:   17 GB  (
 Рейтинг:   4,7 (Голосов: 32)
 Поблагодарили:   95
 Проверка:   Оформление проверено модератором 11 Окт 2019 08:16:15
Как cкачать  ·  Как раздать  ·  Правильно оформить  ·  Поднять ратио!  
Загрузка...
Ampho_DnB ®
RG Аниме
Uploader 100+
 
Стаж: 7 лет 8 мес.
Сообщений: 3718
Ratio: 323,117
Поблагодарили: 86661
100%
Откуда: дует?
roody.gif
Торрент обновлен. Заменена озвучка, добавлена 2 серия.
Ampho_DnB ®
RG Аниме
Uploader 100+
 
Стаж: 7 лет 8 мес.
Сообщений: 3718
Ratio: 323,117
Поблагодарили: 86661
100%
Откуда: дует?
roody.gif
Торрент обновлен. Добавлена 3 серия.
Kiberyozheg
Стаж: 3 года 4 мес.
Сообщений: 67
Ratio: 3,195
100%
Откуда: от верблюда
ussr.gif
Перед окаменением Тайдзю собирался признаться в истинных чувствах подруге детства Юдзурихе, но как говорится: "На безрыбье и рак - рыба" :подмигивание:
Ampho_DnB ®
RG Аниме
Uploader 100+
 
Стаж: 7 лет 8 мес.
Сообщений: 3718
Ratio: 323,117
Поблагодарили: 86661
100%
Откуда: дует?
roody.gif
Торрент обновлен. Добавлена 4 серия.
Ampho_DnB ®
RG Аниме
Uploader 100+
 
Стаж: 7 лет 8 мес.
Сообщений: 3718
Ratio: 323,117
Поблагодарили: 86661
100%
Откуда: дует?
roody.gif
Торрент обновлен. Добавлена 5 серия.
shikulja
Стаж: 8 лет 7 мес.
Сообщений: 282
Ratio: 1,601
49.36%
russia.gif
новые серии будт?
Ampho_DnB ®
RG Аниме
Uploader 100+
 
Стаж: 7 лет 8 мес.
Сообщений: 3718
Ratio: 323,117
Поблагодарили: 86661
100%
Откуда: дует?
roody.gif
shikulja писал(а): Перейти к сообщению
новые серии будт?

Возможно, пока озвучки на новые серии нет. У newcomerz бывает такое, потом догоняют.
Ampho_DnB ®
RG Аниме
Uploader 100+
 
Стаж: 7 лет 8 мес.
Сообщений: 3718
Ratio: 323,117
Поблагодарили: 86661
100%
Откуда: дует?
roody.gif
Торрент полностью обновлен.
Заменена озвучка, добавлены 6 и 7 серии.
Ampho_DnB ®
RG Аниме
Uploader 100+
 
Стаж: 7 лет 8 мес.
Сообщений: 3718
Ratio: 323,117
Поблагодарили: 86661
100%
Откуда: дует?
roody.gif
Торрент обновлен. Добавлены 8-10 серии.
PEBHOCTb
Стаж: 3 года
Сообщений: 44
Ratio: 3,306
100%
подожду 24й серии)
Ampho_DnB ®
RG Аниме
Uploader 100+
 
Стаж: 7 лет 8 мес.
Сообщений: 3718
Ratio: 323,117
Поблагодарили: 86661
100%
Откуда: дует?
roody.gif
Торрент обновлен. Добавлена 11 серия.
Ampho_DnB ®
RG Аниме
Uploader 100+
 
Стаж: 7 лет 8 мес.
Сообщений: 3718
Ratio: 323,117
Поблагодарили: 86661
100%
Откуда: дует?
roody.gif
Торрент обновлен. Добавлена 12 серия.
Ampho_DnB ®
RG Аниме
Uploader 100+
 
Стаж: 7 лет 8 мес.
Сообщений: 3718
Ratio: 323,117
Поблагодарили: 86661
100%
Откуда: дует?
roody.gif
Торрент обновлен. Добавлена 13 серия.
Ampho_DnB ®
RG Аниме
Uploader 100+
 
Стаж: 7 лет 8 мес.
Сообщений: 3718
Ratio: 323,117
Поблагодарили: 86661
100%
Откуда: дует?
roody.gif
Торрент обновлен. Добавлена 14 серия.
Показать сообщения:   
Начать новую тему   Ответить на тему    Торрент-трекер NNM-Club -> Аниме с озвучкой -> Онгоинги с озвучкой Часовой пояс: GMT + 3
Страница 1 из 1