Классический форум-трекер
canvas not supported
Нас вместе: 4 079 139

Русалочка (1976) DVDRip


 
 
RSS
Начать новую тему   Ответить на тему    Торрент-трекер NNM-Club -> Видео -> Отечественные Фильмы для детей
Автор Сообщение
almikl ®
Куратор Детского.
Модератор Видео.
RG Всё лучшее - детям!
Uploader 500+
 
Стаж: 12 лет 4 мес.
Сообщений: 4750
Ratio: 338,751
Поблагодарили: 107247
100%
Откуда: Дааалекое Подмосковье
russia.gif
Русалочка (1976) DVDRip
Производство: СССР, Болгария
Жанр: Сказка, Семейный

Режиссер: Владимир Бычков
Актеры: Вика Новикова, Валентин Никулин, Галина Артемова, Юрий Сенкевич, Галина Волчек, Стефан Илиев, Михаил Пуговкин, Светлана Моисеенко, Маргарита Чудинова, Стефан Пейчев, Михаил Янушкевич, Андрей Файт, Юлий Файт

Описание :
«Русалочка» — по мотивам сказки Ганса Христиана Андерсена.
Маленькая Русалочка полюбила Принца, однажды спасённого ею во время шторма. Ради этой любви Русалочка пожертвовала многим: она не побоялась покинуть свой дом, вступила в сделку со злой колдуньей. Колдунья, используя различные магические заклятия в обмен на прекрасные волосы Русалочки, сотворила ей вместо рыбьего хвоста человеческие ноги и сделала так, чтобы Русалочка смогла ходить и жить на земле. Через все эти испытания прошла маленькая Русалочка только ради одного — быть рядом с любимым.


Возраст: 0+ (для любой зрительской аудитории)
Дата российской премьеры: 17 декабря 1976
Дата выхода DVD/Blu-ray релиза: 1 сентября 2009

Продолжительность: 01:17:51
Качество видео: DVDRip

Видео: XviD, 513x384, ~1100 Kbps
Аудио: MP3, 3 ch, 128 Kbps

Общее
Полное имя : Русалочка.1976.DVDRip.700.almikl.nnmclub.avi
Формат : AVI
Формат/Информация : Audio Video Interleave
Размер файла : 700 Мбайт
Продолжительность : 1 ч. 17 м.
Режим общего битрейта : Переменный
Общий поток : 1257 Кбит/сек
Программа кодирования : VirtualDubMod 1.5.4.1 (build 2178/release)
Библиотека кодирования : VirtualDubMod build 2178/release

Видео
Идентификатор : 0
Формат : MPEG-4 Visual
Профиль формата : Advanced Simple@L5
Настройки формата : BVOP1 / Custom Matrix
Параметр BVOP формата : 1
Параметр QPel формата : Нет
Параметр GMC формата : Без точки перехода
Параметр матрицы формата : Выборочная
Идентификатор кодека : XVID
Идентификатор кодека/Подсказка : XviD
Продолжительность : 1 ч. 17 м.
Битрейт : 1132 Кбит/сек
Ширина : 512 пикселей
Высота : 384 пикселя
Соотношение сторон : 4:3
Частота кадров : 25,000 кадров/сек
Цветовое пространство : YUV
Субдискретизация насыщенности : 4:2:0
Битовая глубина : 8 бит
Тип развёртки : Прогрессивная
Метод сжатия : С потерями
Бит/(Пиксели*Кадры) : 0.230
Размер потока : 630 Мбайт (90%)
Библиотека кодирования : XviD 73

Аудио
Идентификатор : 1
Формат : MPEG Audio
Версия формата : Version 1
Профиль формата : Layer 3
Настройки формата : Joint stereo / MS Stereo
Идентификатор кодека : 55
Идентификатор кодека/Подсказка : MP3
Продолжительность : 1 ч. 17 м.
Вид битрейта : Переменный
Битрейт : 112 Кбит/сек
Номинальный битрейт : 128 Кбит/сек
Каналы : 2 канала
Частота : 48,0 КГц
Частота кадров : 41,667 кадра/сек (1152 SPF)
Метод сжатия : С потерями
Задержка видео : 4 с. 656 мс.
Размер потока : 62,6 Мбайт (9%)
Выравнивание : Разделение по промежуткам
Продолжительность промежутка : 24 мс. (0,60 видеокадр)
Время предзагрузки промежутка : 1724 мс.
Библиотека кодирования : LAME3.98r
Настройки программы : -m j -V 4 -q 2 -lowpass 17 --abr 128
Скриншоты:


Время раздачи: 24/7 до 5 скачавших
Русалочка (1976) на NNM-club
Rusalochka.1976.DVDRip.700.almikl.nnmclub.avi.torrent
 Торрент: Платиновая раздача  Зарегистрирован
 
Скачать


Примагнититься
 Зарегистрирован:   29 Июл 2019 16:36:07
 Размер:   700 MB  (
 Рейтинг:    (Голосов: 4)
 Поблагодарили:   28
 Проверка:   Оформление проверено модератором 29 Июл 2019 16:39:14
Как cкачать  ·  Как раздать  ·  Правильно оформить  ·  Поднять ратио!  
Загрузка...
Показать сообщения:   
Начать новую тему   Ответить на тему    Торрент-трекер NNM-Club -> Видео -> Отечественные Фильмы для детей Часовой пояс: GMT + 3
Страница 1 из 1