Классический форум-трекер
canvas not supported
Нас вместе: 4 079 192

Русалочка (1976) DVDRemux


 
 
RSS
Начать новую тему   Ответить на тему    Торрент-трекер NNM-Club -> Видео -> Отечественные Фильмы для детей
Автор Сообщение
almikl ®
Куратор Детского.
Модератор Видео.
RG Всё лучшее - детям!
Uploader 500+
 
Стаж: 12 лет 4 мес.
Сообщений: 4758
Ratio: 339,705
Поблагодарили: 107473
100%
Откуда: Дааалекое Подмосковье
russia.gif
Русалочка (1976) DVDRemux
Производство: СССР, Болгария
Жанр: Сказка, Семейный

Режиссер: Владимир Бычков
Актеры: Вика Новикова, Валентин Никулин, Галина Артемова, Юрий Сенкевич, Галина Волчек, Стефан Илиев, Михаил Пуговкин, Светлана Моисеенко, Маргарита Чудинова, Стефан Пейчев, Михаил Янушкевич, Андрей Файт, Юлий Файт

Описание :
«Русалочка» — по мотивам сказки Ганса Христиана Андерсена.
Маленькая Русалочка полюбила Принца, однажды спасённого ею во время шторма. Ради этой любви Русалочка пожертвовала многим: она не побоялась покинуть свой дом, вступила в сделку со злой колдуньей. Колдунья, используя различные магические заклятия в обмен на прекрасные волосы Русалочки, сотворила ей вместо рыбьего хвоста человеческие ноги и сделала так, чтобы Русалочка смогла ходить и жить на земле. Через все эти испытания прошла маленькая Русалочка только ради одного — быть рядом с любимым.


Возраст: 0+ (для любой зрительской аудитории)
Дата российской премьеры: 17 декабря 1976
Дата выхода DVD/Blu-ray релиза: 1 сентября 2009

Продолжительность: 01:17:51
Качество видео: DVDRemux

Видео: MPEG-2, 720x576@768x576, ~6000 Kbps
Аудио #1: AC3, 6 ch, 448 Kbps - русский
Аудио #1: AC3, 6 ch, 448 Kbps - английский

Общее
Уникальный идентификатор : 240893902986293551109981669030148711631 (0xB53A7A65F3ABEC1A697ED4F6E9F824CF)
Полное имя : Русалочка.1976.DVDRemux.almikl.nnmclub.mkv
Формат : Matroska
Версия формата : Version 2
Размер файла : 3,75 Гбайт
Продолжительность : 1 ч. 17 м.
Режим общего битрейта : Постоянный
Общий поток : 6898 Кбит/сек
Дата кодирования : UTC 2019-07-26 12:35:25
Программа кодирования : MakeMKV v1.14.3 win(x64-release)
Библиотека кодирования : libmakemkv v1.14.3 (1.3.5/1.4.7) win(x64-release)

Видео
Идентификатор : 1
OriginalSourceMedium_ID/String : 224 (0xE0)
Формат : MPEG Video
Версия формата : Version 2
Профиль формата : Main@Main
Настройки формата : CustomMatrix / BVOP
Параметр BVOP формата : Да
Параметр матрицы формата : Выборочная
Параметр GOP формата : M=3, N=12
Структура изображения : Frame
Идентификатор кодека : V_MPEG2
Идентификатор кодека/Информация : MPEG 1 or 2 Video
Продолжительность : 1 ч. 17 м.
Вид битрейта : Постоянный
Битрейт : 6000 Кбит/сек
Ширина : 720 пикселей
Высота : 576 пикселей
Соотношение сторон : 4:3
Режим частоты кадров : Постоянный
Частота кадров : 25,000 кадров/сек
Стандарт вещания : PAL
Цветовое пространство : YUV
Субдискретизация насыщенности : 4:2:0
Битовая глубина : 8 бит
Тип развёртки : Чересстрочная
Порядок развёртки : Верхнее поле первое
Метод сжатия : С потерями
Бит/(Пиксели*Кадры) : 0.579
Временной код первого кадра : 00:01:00:00
Оригинал временного кода : Group of pictures header
GOP, открыто/закрыто : Закрыто
Размер потока : 3,26 Гбайт (87%)
Язык : English
Default : Нет
Forced : Нет
Носитель оригинала : DVD-Video

Аудио #1
Идентификатор : 2
OriginalSourceMedium_ID/String : 189 (0xBD)128 (0x80)
Формат : AC-3
Формат/Информация : Audio Coding 3
Коммерческое название : Dolby Digital
Идентификатор кодека : A_AC3
Продолжительность : 1 ч. 17 м.
Вид битрейта : Постоянный
Битрейт : 448 Кбит/сек
Каналы : 6 каналов
ChannelLayout : L R C LFE Ls Rs
Частота : 48,0 КГц
Частота кадров : 31,250 кадров/сек (1536 SPF)
Битовая глубина : 16 бит
Метод сжатия : С потерями
Задержка видео : 4 с. 680 мс.
Размер потока : 249 Мбайт (6%)
Заголовок : Surround 5.1
Язык : Russian
ServiceKind/String : Complete Main
Default : Да
Forced : Нет
Носитель оригинала : DVD-Video

Аудио #2
Идентификатор : 3
OriginalSourceMedium_ID/String : 189 (0xBD)129 (0x81)
Формат : AC-3
Формат/Информация : Audio Coding 3
Коммерческое название : Dolby Digital
Идентификатор кодека : A_AC3
Продолжительность : 1 ч. 17 м.
Вид битрейта : Постоянный
Битрейт : 448 Кбит/сек
Каналы : 6 каналов
ChannelLayout : L R C LFE Ls Rs
Частота : 48,0 КГц
Частота кадров : 31,250 кадров/сек (1536 SPF)
Битовая глубина : 16 бит
Метод сжатия : С потерями
Задержка видео : 4 с. 720 мс.
Размер потока : 249 Мбайт (6%)
Заголовок : Surround 5.1
Язык : English
ServiceKind/String : Complete Main
Default : Нет
Forced : Нет
Носитель оригинала : DVD-Video

Меню
00:00:00.080 : en:Chapter 01
00:07:59.360 : en:Chapter 02
00:09:10.040 : en:Chapter 03
00:14:53.960 : en:Chapter 04
00:19:51.680 : en:Chapter 05
00:24:15.680 : en:Chapter 06
00:26:57.560 : en:Chapter 07
00:30:05.960 : en:Chapter 08
00:33:56.720 : en:Chapter 09
00:35:31.760 : en:Chapter 10
00:39:18.200 : en:Chapter 11
00:44:09.200 : en:Chapter 12
00:46:58.280 : en:Chapter 13
00:48:04.880 : en:Chapter 14
00:54:39.800 : en:Chapter 15
00:58:05.000 : en:Chapter 16
01:02:27.080 : en:Chapter 17
01:08:35.840 : en:Chapter 18
01:12:46.040 : en:Chapter 19
01:16:43.880 : en:Chapter 20
Скриншоты:


Время раздачи: 24/7 до 5 скачавших
Русалочка (1976) на NNM-club
Rusalochka.1976.DVDRemux.almikl.nnmclub.mkv.torrent
 Торрент: Платиновая раздача  Зарегистрирован
 
Скачать


Примагнититься
 Зарегистрирован:   31 Июл 2019 11:38:32
 Размер:   3,75 GB  (
 Рейтинг:    (Голосов: 4)
 Поблагодарили:   25
 Проверка:   Оформление проверено модератором 31 Июл 2019 11:38:59
Как cкачать  ·  Как раздать  ·  Правильно оформить  ·  Поднять ратио!  
Показать сообщения:   
Начать новую тему   Ответить на тему    Торрент-трекер NNM-Club -> Видео -> Отечественные Фильмы для детей Часовой пояс: GMT + 3
Страница 1 из 1