Классический форум-трекер
canvas not supported
Нас вместе: 4 077 963

Андриеш (1954) DVDRip


 
 
RSS
Начать новую тему   Ответить на тему    Торрент-трекер NNM-Club -> Видео -> Отечественные Фильмы для детей
Автор Сообщение
almikl ®
Куратор Детского.
Модератор Видео.
RG Всё лучшее - детям!
Uploader 500+
 
Стаж: 12 лет 3 мес.
Сообщений: 4702
Ratio: 332,553
Поблагодарили: 105600
100%
Откуда: Дааалекое Подмосковье
russia.gif
Андриеш (1954) DVDRip
Производство: СССР
Жанр: Семейный, Сказка, Детский

Режиссер: Яков Базелян, Сергей Параджанов
Актеры: Гиули Чохонелидзе, Константин Руссу, Людмила Соколова, К. Стирбу, Евгений Ереке, Доминика Дариенко, Р. Клявин, Трифон Грузин, Нодар Шашик-оглы

Описание :
По одноименной сказке Емилиана Букова о герое молдавских сказок — пастушонке Андриеше, мечтавшем стать витязем, о волшебной свирели, которую однажды ему подарил сказочный богатырь Вайнован, и борьбе со злым волшебником Черным Вихрем, ненавидящем все живое.


Возраст: 12+ (зрителям, достигшим 12 лет)

Релиз от: almikl ®

Продолжительность: 00:58:27
Качество видео: DVDRip (700 mb)

Видео: XviD, 560x416, ~1500 Kbps
Аудио: MP3, 2 ch, 128 Kbps

Общее
Полное имя : Андриеш.1954.DVDRip.700.almikl.nnmclub.avi
Формат : AVI
Формат/Информация : Audio Video Interleave
Размер файла : 700 Мбайт
Продолжительность : 58 м. 27 с.
Режим общего битрейта : Переменный
Общий поток : 1674 Кбит/сек
Программа кодирования : VirtualDubMod 1.5.4.1 (build 2178/release)
Библиотека кодирования : VirtualDubMod build 2178/release

Видео
Идентификатор : 0
Формат : MPEG-4 Visual
Профиль формата : Advanced Simple@L5
Настройки формата : BVOP1 / Custom Matrix
Параметр BVOP формата : 1
Параметр QPel формата : Нет
Параметр GMC формата : Без точки перехода
Параметр матрицы формата : Выборочная
Идентификатор кодека : XVID
Идентификатор кодека/Подсказка : XviD
Продолжительность : 58 м. 27 с.
Битрейт : 1550 Кбит/сек
Ширина : 560 пикселей
Высота : 416 пикселей
Соотношение сторон : 4:3
Частота кадров : 25,000 кадров/сек
Цветовое пространство : YUV
Субдискретизация насыщенности : 4:2:0
Битовая глубина : 8 бит
Тип развёртки : Прогрессивная
Метод сжатия : С потерями
Бит/(Пиксели*Кадры) : 0.266
Размер потока : 648 Мбайт (93%)
Библиотека кодирования : XviD 73

Аудио
Идентификатор : 1
Формат : MPEG Audio
Версия формата : Version 1
Профиль формата : Layer 3
Настройки формата : Joint stereo / MS Stereo
Идентификатор кодека : 55
Идентификатор кодека/Подсказка : MP3
Продолжительность : 58 м. 27 с.
Вид битрейта : Переменный
Битрейт : 111 Кбит/сек
Номинальный битрейт : 128 Кбит/сек
Каналы : 2 канала
Частота : 48,0 КГц
Частота кадров : 41,667 кадра/сек (1152 SPF)
Метод сжатия : С потерями
Размер потока : 46,3 Мбайт (7%)
Выравнивание : Соединение по промежуткам
Продолжительность промежутка : 24 мс. (0,60 видеокадр)
Время предзагрузки промежутка : 499 мс.
Библиотека кодирования : LAME3.98r
Настройки программы : -m j -V 4 -q 2 -lowpass 17 --abr 128
Скриншоты:


Все одноименные релизы в Клубе

Время раздачи: 24/7 (до появления первых 3-5 скачавших)
Andriesh.1954.DVDRip.700.almikl.nnmclub.avi.torrent
 Торрент: Платиновая раздача  Зарегистрирован
 
Скачать


Примагнититься
 Зарегистрирован:   01 Авг 2019 13:35:30
 Размер:   700 MB  (
 Рейтинг:    (Голосов: 5)
 Поблагодарили:   17
 Проверка:   Оформление проверено модератором 01 Авг 2019 13:36:18
Как cкачать  ·  Как раздать  ·  Правильно оформить  ·  Поднять ратио!  
Показать сообщения:   
Начать новую тему   Ответить на тему    Торрент-трекер NNM-Club -> Видео -> Отечественные Фильмы для детей Часовой пояс: GMT + 3
Страница 1 из 1