Классический форум-трекер
canvas not supported
Нас вместе: 4 079 155

Андриеш (1954) DVDRemux


 
 
RSS
Начать новую тему   Ответить на тему    Торрент-трекер NNM-Club -> Видео -> Отечественные Фильмы для детей
Автор Сообщение
almikl ®
Куратор Детского.
Модератор Видео.
RG Всё лучшее - детям!
Uploader 500+
 
Стаж: 12 лет 4 мес.
Сообщений: 4756
Ratio: 339,322
Поблагодарили: 107425
100%
Откуда: Дааалекое Подмосковье
russia.gif
Андриеш (1954) DVDRemux
Производство: СССР
Жанр: Семейный, Сказка, Детский

Режиссер: Яков Базелян, Сергей Параджанов
Актеры: Гиули Чохонелидзе, Константин Руссу, Людмила Соколова, К. Стирбу, Евгений Ереке, Доминика Дариенко, Р. Клявин, Трифон Грузин, Нодар Шашик-оглы

Описание :
По одноименной сказке Емилиана Букова о герое молдавских сказок — пастушонке Андриеше, мечтавшем стать витязем, о волшебной свирели, которую однажды ему подарил сказочный богатырь Вайнован, и борьбе со злым волшебником Черным Вихрем, ненавидящем все живое.


Возраст: 12+ (зрителям, достигшим 12 лет)

Релиз от: almikl ®

Продолжительность: 00:58:27
Качество видео: DVDRemux

Видео: MPEG-2, 720x576@768x576, ~3000 Kbps
Аудио: AC3, 6 ch, 384 Kbps

Общее
Уникальный идентификатор : 251132368087017238212436262672056174619 (0xBCEE55B382BF56850529DC60DD3BC81B)
Полное имя : Андриеш.1954.DVDRemux.almikl.nnmclub.mkv
Формат : Matroska
Версия формата : Version 2
Размер файла : 3,55 Гбайт
Продолжительность : 58 м. 27 с.
Режим общего битрейта : Переменный
Общий поток : 8686 Кбит/сек
Дата кодирования : UTC 2019-07-31 09:20:19
Программа кодирования : MakeMKV v1.14.3 win(x64-release)
Библиотека кодирования : libmakemkv v1.14.3 (1.3.5/1.4.7) win(x64-release)

Видео
Идентификатор : 1
OriginalSourceMedium_ID/String : 224 (0xE0)
Формат : MPEG Video
Версия формата : Version 2
Профиль формата : Main@Main
Настройки формата : CustomMatrix / BVOP
Параметр BVOP формата : Да
Параметр матрицы формата : Выборочная
Параметр GOP формата : M=3, N=13
Структура изображения : Frame
Идентификатор кодека : V_MPEG2
Идентификатор кодека/Информация : MPEG 1 or 2 Video
Продолжительность : 58 м. 27 с.
Вид битрейта : Переменный
Битрейт : 8297 Кбит/сек
Максимальный битрейт : 9200 Кбит/сек
Ширина : 720 пикселей
Высота : 576 пикселей
Соотношение сторон : 4:3
Режим частоты кадров : Постоянный
Частота кадров : 25,000 кадров/сек
Стандарт вещания : PAL
Цветовое пространство : YUV
Субдискретизация насыщенности : 4:2:0
Битовая глубина : 8 бит
Тип развёртки : Чересстрочная
Порядок развёртки : Верхнее поле первое
Метод сжатия : С потерями
Бит/(Пиксели*Кадры) : 0.800
Временной код первого кадра : 00:00:00:00
Оригинал временного кода : Group of pictures header
GOP, открыто/закрыто : Закрыто
Размер потока : 3,39 Гбайт (96%)
Библиотека кодирования : TMPGEnc 3.0 XPress Version. 3.0.4.24
Язык : English
Default : Нет
Forced : Нет
Основные цвета : BT.601 PAL
Характеристики трансфера : BT.470 System B/G
Коэффициенты матрицы : FCC 73.682
Носитель оригинала : DVD-Video

Аудио
Идентификатор : 2
OriginalSourceMedium_ID/String : 189 (0xBD)128 (0x80)
Формат : AC-3
Формат/Информация : Audio Coding 3
Коммерческое название : Dolby Digital
Идентификатор кодека : A_AC3
Продолжительность : 58 м. 27 с.
Вид битрейта : Постоянный
Битрейт : 384 Кбит/сек
Каналы : 6 каналов
ChannelLayout : L R C LFE Ls Rs
Частота : 48,0 КГц
Частота кадров : 31,250 кадров/сек (1536 SPF)
Битовая глубина : 16 бит
Метод сжатия : С потерями
Размер потока : 161 Мбайт (4%)
Заголовок : Surround 5.1
Язык : Russian
ServiceKind/String : Complete Main
Default : Да
Forced : Нет
Носитель оригинала : DVD-Video

Меню
00:00:00.000 : en:Chapter 01
00:06:44.840 : en:Chapter 02
00:13:21.320 : en:Chapter 03
00:19:43.520 : en:Chapter 04
00:26:09.560 : en:Chapter 05
00:32:29.280 : en:Chapter 06
00:39:01.840 : en:Chapter 07
00:45:46.840 : en:Chapter 08
00:52:11.360 : en:Chapter 09
Скриншоты:


Все одноименные релизы в Клубе

Время раздачи: 24/7 (до появления первых 3-5 скачавших)
Andriesh.1954.DVDRemux.almikl.nnmclub.mkv.torrent
 Торрент: Платиновая раздача  Зарегистрирован
 
Скачать


Примагнититься
 Зарегистрирован:   01 Авг 2019 14:46:17
 Размер:   3,55 GB  (
 Рейтинг:    (Голосов: 3)
 Поблагодарили:   22
 Проверка:   Оформление проверено модератором 01 Авг 2019 14:46:58
Как cкачать  ·  Как раздать  ·  Правильно оформить  ·  Поднять ратио!  
Загрузка...
Показать сообщения:   
Начать новую тему   Ответить на тему    Торрент-трекер NNM-Club -> Видео -> Отечественные Фильмы для детей Часовой пояс: GMT + 3
Страница 1 из 1