Классический форум-трекер
canvas not supported
Нас вместе: 4 082 046

Проданный смех (1981) DVDRip


 
 
RSS
Начать новую тему   Ответить на тему    Торрент-трекер NNM-Club -> Видео -> Отечественные Фильмы для детей
Автор Сообщение
almikl ®
Куратор Детского.
Модератор Видео.
RG Всё лучшее - детям!
Uploader 500+
 

Online
Стаж: 12 лет 5 мес.
Сообщений: 4774
Ratio: 345,54
Поблагодарили: 108243
100%
Откуда: Дааалекое Подмосковье
russia.gif
Проданный смех (1981) DVDRip
Производство: СССР
Жанр: мюзикл, фэнтези, приключения, семейный

Режиссер: Леонид Нечаев
Сценарий: Инна Веткина, Джеймс Крюс
Оператор: Владимир Калашников
Композитор : Максим Дунаевский
Художник: Алим Матвейчук
Монтаж: Вера Коляденко

Актеры: Павел Кадочников, Саша Продан, Женя Григорьева, Настя Нечаева, Вадим Белевцев, Наталья Гундарева, Екатерина Васильева, Надежда Румянцева, Юрий Катин-Ярцев, Гасан Мамедов, Анатолий Галевский, Игорь Дмитриев, Борислав Брондуков, Федор Никитин

Описание: После смерти отца Тим Талер, добрый и веселый мальчик, остается со скупой мачехой. Он продает свой смех злому волшебнику в обмен на способность выигрывать любые пари. Но без улыбки и смеха, оказывается, не может быть счастья. Тогда Тим пускается в опасное путешествие, чтобы вернуть смех…


Возраст: 12+ (зрителям, достигшим 12 лет)

Релиз от: almikl ®

Продолжительность: 02:10:14
Качество видео: DVDRip

Видео: XviD, 560x416, ~1300 Kbps
Аудио: AC3, 2 ch, 192 Kbps
Код: выделить все
Общее
Полное имя                               : Проданный смех.1981.DVDRip.almikl.nnmclub.avi
Формат                                   : AVI
Формат/Информация                        : Audio Video Interleave
Размер файла                             : 1,37 Гбайт
Продолжительность                        : 2 ч. 10 м.
Общий поток                              : 1500 Кбит/сек
Программа кодирования                    : VirtualDubMod 1.5.4.1 (build 2178/release)
Библиотека кодирования                   : VirtualDubMod build 2178/release

Видео
Идентификатор                            : 0
Формат                                   : MPEG-4 Visual
Профиль формата                          : Advanced Simple@L5
Настройки формата                        : BVOP1 / Custom Matrix
Параметр BVOP формата                    : 1
Параметр QPel формата                    : Нет
Параметр GMC формата                     : Без точки перехода
Параметр матрицы формата                 : Выборочная
Идентификатор кодека                     : XVID
Идентификатор кодека/Подсказка           : XviD
Продолжительность                        : 2 ч. 10 м.
Битрейт                                  : 1301 Кбит/сек
Ширина                                   : 560 пикселей
Высота                                   : 416 пикселей
Соотношение сторон                       : 4:3
Частота кадров                           : 25,000 кадров/сек
Цветовое пространство                    : YUV
Субдискретизация насыщенности            : 4:2:0
Битовая глубина                          : 8 бит
Тип развёртки                            : Прогрессивная
Метод сжатия                             : С потерями
Бит/(Пиксели*Кадры)                      : 0.223
Размер потока                            : 1,19 Гбайт (87%)
Библиотека кодирования                   : XviD 73

Аудио
Идентификатор                            : 1
Формат                                   : AC-3
Формат/Информация                        : Audio Coding 3
Коммерческое название                    : Dolby Digital
Идентификатор кодека                     : 2000
Продолжительность                        : 2 ч. 10 м.
Вид битрейта                             : Постоянный
Битрейт                                  : 192 Кбит/сек
Каналы                                   : 2 канала
ChannelLayout                            : L R
Частота                                  : 48,0 КГц
Частота кадров                           : 31,250 кадров/сек (1536 SPF)
Битовая глубина                          : 16 бит
Метод сжатия                             : С потерями
Размер потока                            : 179 Мбайт (13%)
Выравнивание                             : Разделение по промежуткам
Продолжительность промежутка             : 96  мс. (2,40 видеокадра)
Время предзагрузки промежутка            : 96  мс.
ServiceKind/String                       : Complete Main
Скриншоты:


Время раздачи: 24/7, круглосуточно, до 10 скачавших
Все релизы Проданный смех на NNM-CLUB
Prodannyiy smeh.1981.DVDRip.almikl.nnmclub.avi.torrent
 Торрент: Платиновая раздача  Зарегистрирован
 
Скачать


Примагнититься
 Зарегистрирован:   02 Авг 2019 11:12:23
 Размер:   1,37 GB  (
 Рейтинг:    (Голосов: 5)
 Поблагодарили:   42
 Проверка:   Оформление проверено модератором 02 Авг 2019 11:13:04
Как cкачать  ·  Как раздать  ·  Правильно оформить  ·  Поднять ратио!  
Показать сообщения:   
Начать новую тему   Ответить на тему    Торрент-трекер NNM-Club -> Видео -> Отечественные Фильмы для детей Часовой пояс: GMT + 3
Страница 1 из 1