Классический форум-трекер
canvas not supported
Нас вместе: 4 077 957

Алёша Птицын вырабатывает характер (1953) DVDRip


 
 
RSS
Начать новую тему   Ответить на тему    Торрент-трекер NNM-Club -> Видео -> Отечественные Фильмы для детей
Автор Сообщение
almikl ®
Куратор Детского.
Модератор Видео.
RG Всё лучшее - детям!
Uploader 500+
 
Стаж: 12 лет 3 мес.
Сообщений: 4720
Ratio: 333,495
Поблагодарили: 106136
100%
Откуда: Дааалекое Подмосковье
russia.gif
Алёша Птицын вырабатывает характер (1953) DVDRip
Производство: СССР
Жанр: Детский, Семейный

Режиссер: Анатолий Граник
Актеры: Виктор Каргопольцев, Ольга Пыжова, Валентина Сперантова, Наталья Полинковская (Наталья Селезнева), Юрий Бубликов, Валентина Ушакова, Анна Лисянская, Екатерина Савинова, Тамара Алешина, Роза Макагонова, Александр Михайлов, Надежда Румянцева, Лидия Сухаревская

Описание :
По одноименному произведению Агнии Барто. Ученик третьего класса решил заняться самовоспитанием. Отказавшись от опеки рассеянной бабушки и вредной сестренки, он начал с того, что самостоятельно пришел в школу, сорвал урок, устыдившись, сделал хорошее дело - вернул утерянную тетрадь владельцу и отправился показывать гостям столицу, красивую и чистую Москву, высотные здания столицы, новые станции метро, широкие улицы... Соверщенно не думая о том, как к этому отнесутся доpогие папа и мама...


Возраст: 6+ (зрителям, достигшим 6 лет)

Релиз от: almikl ®

Продолжительность: 01:08:07
Качество видео: DVDRip (700 mb)

Видео: XviD, 592x448, ~1300 Kbps
Аудио: MP3, 2 ch, 128 Kbps

Общее
Полное имя : Алёша Птицын вырабатывает характер.1953.DVDRip.700.almikl.nnmclub.avi
Формат : AVI
Формат/Информация : Audio Video Interleave
Размер файла : 700 Мбайт
Продолжительность : 1 ч. 8 м.
Режим общего битрейта : Переменный
Общий поток : 1437 Кбит/сек
Программа кодирования : VirtualDubMod 1.5.4.1 (build 2178/release)
Библиотека кодирования : VirtualDubMod build 2178/release

Видео
Идентификатор : 0
Формат : MPEG-4 Visual
Профиль формата : Advanced Simple@L5
Настройки формата : BVOP1 / Custom Matrix
Параметр BVOP формата : 1
Параметр QPel формата : Нет
Параметр GMC формата : Без точки перехода
Параметр матрицы формата : Выборочная
Идентификатор кодека : XVID
Идентификатор кодека/Подсказка : XviD
Продолжительность : 1 ч. 8 м.
Битрейт : 1319 Кбит/сек
Ширина : 592 пикселя
Высота : 448 пикселей
Соотношение сторон : 4:3
Частота кадров : 25,000 кадров/сек
Цветовое пространство : YUV
Субдискретизация насыщенности : 4:2:0
Битовая глубина : 8 бит
Тип развёртки : Прогрессивная
Метод сжатия : С потерями
Бит/(Пиксели*Кадры) : 0.199
Размер потока : 643 Мбайт (92%)
Библиотека кодирования : XviD 73

Аудио
Идентификатор : 1
Формат : MPEG Audio
Версия формата : Version 1
Профиль формата : Layer 3
Настройки формата : Joint stereo / MS Stereo
Идентификатор кодека : 55
Идентификатор кодека/Подсказка : MP3
Продолжительность : 1 ч. 8 м.
Вид битрейта : Переменный
Битрейт : 105 Кбит/сек
Номинальный битрейт : 128 Кбит/сек
Каналы : 2 канала
Частота : 48,0 КГц
Частота кадров : 41,667 кадра/сек (1152 SPF)
Метод сжатия : С потерями
Размер потока : 51,1 Мбайт (7%)
Выравнивание : Соединение по промежуткам
Продолжительность промежутка : 24 мс. (0,60 видеокадр)
Время предзагрузки промежутка : 516 мс.
Библиотека кодирования : LAME3.98r
Настройки программы : -m j -V 4 -q 2 -lowpass 17 --abr 128
Скриншоты:


Все одноименные релизы в Клубе

Время раздачи: 24/7 (до появления первых 3-5 скачавших)
Alesha Ptitsyin vyirabatyivaet harakter.1953.DVDRip.700.almikl.nnmclub.avi.torrent
 Торрент: Платиновая раздача  Зарегистрирован
 
Скачать


Примагнититься
 Зарегистрирован:   05 Авг 2019 12:09:13
 Размер:   700 MB  (
 Рейтинг:    (Голосов: 7)
 Поблагодарили:   34
 Проверка:   Оформление проверено модератором 05 Авг 2019 12:20:41
Как cкачать  ·  Как раздать  ·  Правильно оформить  ·  Поднять ратио!  
Показать сообщения:   
Начать новую тему   Ответить на тему    Торрент-трекер NNM-Club -> Видео -> Отечественные Фильмы для детей Часовой пояс: GMT + 3
Страница 1 из 1