Классический форум-трекер
canvas not supported
Нас вместе: 4 077 958

Алёша Птицын вырабатывает характер (1953) DVD5


 
 
RSS
Начать новую тему   Ответить на тему    Торрент-трекер NNM-Club -> Видео -> Отечественные Фильмы для детей
Автор Сообщение
almikl ®
Куратор Детского.
Модератор Видео.
RG Всё лучшее - детям!
Uploader 500+
 
Стаж: 12 лет 3 мес.
Сообщений: 4720
Ratio: 333,504
Поблагодарили: 106136
100%
Откуда: Дааалекое Подмосковье
russia.gif
Алёша Птицын вырабатывает характер (1953) DVD5
Производство: СССР
Жанр: Детский, Семейный

Режиссер: Анатолий Граник
Актеры: Виктор Каргопольцев, Ольга Пыжова, Валентина Сперантова, Наталья Полинковская (Наталья Селезнева), Юрий Бубликов, Валентина Ушакова, Анна Лисянская, Екатерина Савинова, Тамара Алешина, Роза Макагонова, Александр Михайлов, Надежда Румянцева, Лидия Сухаревская

Описание :
По одноименному произведению Агнии Барто. Ученик третьего класса решил заняться самовоспитанием. Отказавшись от опеки рассеянной бабушки и вредной сестренки, он начал с того, что самостоятельно пришел в школу, сорвал урок, устыдившись, сделал хорошее дело - вернул утерянную тетрадь владельцу и отправился показывать гостям столицу, красивую и чистую Москву, высотные здания столицы, новые станции метро, широкие улицы... Соверщенно не думая о том, как к этому отнесутся доpогие папа и мама...


Возраст: 6+ (зрителям, достигшим 6 лет)

Релиз от: almikl ®

Продолжительность: 01:08:07
Качество видео: DVD5

Видео: MPEG-2, 720x576@768x576, ~7800 Kbps
Аудио: AC3, 2 ch, 192 Kbps
Дополнительный материалы: отсутствуют
Меню: анимированое
Субтитры: отсутствуют

Общее
Полное имя : Алёша Птицын вырабатывает характер.1953.DVD5\VIDEO_TS\VTS_01_3.VOB
Формат : MPEG-PS
Размер файла : 1024 Мбайт
Продолжительность : 17 м. 37 с.
Режим общего битрейта : Постоянный
Общий поток : 8125 Кбит/сек

Видео
Идентификатор : 224 (0xE0)
Формат : MPEG Video
Версия формата : Version 2
Профиль формата : Main@Main
Настройки формата : CustomMatrix / BVOP
Параметр BVOP формата : Да
Параметр матрицы формата : Выборочная
Параметр GOP формата : M=3, N=15
Структура изображения : Frame
Продолжительность : 17 м. 37 с.
Вид битрейта : Постоянный
Битрейт : 7800 Кбит/сек
Ширина : 720 пикселей
Высота : 576 пикселей
Соотношение сторон : 4:3
Частота кадров : 25,000 кадров/сек
Стандарт вещания : PAL
Цветовое пространство : YUV
Субдискретизация насыщенности : 4:2:0
Битовая глубина : 8 бит
Тип развёртки : Чересстрочная
Порядок развёртки : Верхнее поле первое
Метод сжатия : С потерями
Бит/(Пиксели*Кадры) : 0.752
Временной код первого кадра : 00:34:53:10
Оригинал временного кода : Group of pictures header
GOP, открыто/закрыто : Открыто
Размер потока : 979 Мбайт (96%)

Аудио
Идентификатор : 189 (0xBD)-128 (0x80)
Формат : AC-3
Формат/Информация : Audio Coding 3
Коммерческое название : Dolby Digital
Режим смешивания : DVD-Video
Продолжительность : 17 м. 37 с.
Вид битрейта : Постоянный
Битрейт : 192 Кбит/сек
Каналы : 2 канала
ChannelLayout : L R
Частота : 48,0 КГц
Частота кадров : 31,250 кадров/сек (1536 SPF)
Битовая глубина : 16 бит
Метод сжатия : С потерями
Задержка видео : -232 мс.
Размер потока : 24,2 Мбайт (2%)
ServiceKind/String : Complete Main

Меню
Скриншоты:


Все одноименные релизы в Клубе

Время раздачи: 24/7 (до появления первых 3-5 скачавших)
[NNMClub.to]_Alesha Ptitsyin vyirabatyivaet harakter.1953.DVD5.torrent
 Торрент: Платиновая раздача  Зарегистрирован
 
Скачать


Примагнититься
 Зарегистрирован:   05 Авг 2019 12:59:12
 Размер:   3,94 GB  (
 Рейтинг:    (Голосов: 2)
 Поблагодарили:   25
 Проверка:   Оформление проверено модератором 05 Авг 2019 13:03:49
Как cкачать  ·  Как раздать  ·  Правильно оформить  ·  Поднять ратио!  
Показать сообщения:   
Начать новую тему   Ответить на тему    Торрент-трекер NNM-Club -> Видео -> Отечественные Фильмы для детей Часовой пояс: GMT + 3
Страница 1 из 1