Классический форум-трекер
canvas not supported
Нас вместе: 4 077 958

Магия черная и белая (1983) DVD5


 
 
RSS
Начать новую тему   Ответить на тему    Торрент-трекер NNM-Club -> Видео -> Отечественные Фильмы для детей
Автор Сообщение
almikl ®
Куратор Детского.
Модератор Видео.
RG Всё лучшее - детям!
Uploader 500+
 
Стаж: 12 лет 3 мес.
Сообщений: 4720
Ratio: 333,504
Поблагодарили: 106136
100%
Откуда: Дааалекое Подмосковье
russia.gif
Магия черная и белая (1983) DVD5
Производство: СССР
Жанр: Детский, Комедия, Семейный

Режиссер: Наум Бирман
Актеры: Александр Леньков, Александр Суснин, Антон Гранат, Виктор Сухоруков, Денис Левин, Любовь Малиновская, Маргарита Иванова, Михаил Девяткин, Наталья Попова, Николай Волков мл., Павел Плисов

Описание :
Закадычные друзья, четверокласники Сева Кухтин, неутомимый выдумщик и заводила, и солидный, степенный Витя Елхов всем надоели своими проказами. Эти два сорванца никак не угонятся за своей успеваемостью в школьном коллективе и поэтому новый классный руководитель решил сделать собрание на котором ребята класса решают их дальнейшую судьбу. Как тут, откуда не возьмись, предложение сделала «новенькая» с весьма оригинальным именем и фамилией — Эльвира Сабоните. Именно она заявила, что на ребят не действуют никакие уговоры и увещевания, потому что они ничем не интересуются и тратят свое свободное время не на увлечения, а на шалости. Девочка предложила не брать ребят в поход, пока они не займутся чем нибудь всерьез.


Возраст: 6+ (зрителям, достигшим 6 лет)

Продолжительность: 01:12:01
Качество видео: DVD5

Видео: MPEG-2, 720x576@768x576, ~8000 Kbps
Аудио: AC3, 2 ch, 256 Kbps
Меню: анимированое
Дополнительно: отсутствует
Субтитры: отсутствуют

Общее
Полное имя : Магия чёрная и белая.1983.DVD5\VIDEO_TS\VTS_01_1.VOB
Формат : MPEG-PS
Размер файла : 1023 Мбайт
Продолжительность : 17 м. 1 с.
Режим общего битрейта : Переменный
Общий поток : 8403 Кбит/сек

Видео
Идентификатор : 224 (0xE0)
Формат : MPEG Video
Версия формата : Version 2
Профиль формата : Main@Main
Настройки формата : CustomMatrix / BVOP
Параметр BVOP формата : Да
Параметр матрицы формата : Выборочная
Параметр GOP формата : M=3, N=12
Структура изображения : Frame
Продолжительность : 17 м. 1 с.
Вид битрейта : Переменный
Битрейт : 7980 Кбит/сек
Максимальный битрейт : 8216 Кбит/сек
Ширина : 720 пикселей
Высота : 576 пикселей
Соотношение сторон : 4:3
Частота кадров : 25,000 кадров/сек
Стандарт вещания : PAL
Цветовое пространство : YUV
Субдискретизация насыщенности : 4:2:0
Битовая глубина : 8 бит
Тип развёртки : Чересстрочная
Порядок развёртки : Верхнее поле первое
Метод сжатия : С потерями
Бит/(Пиксели*Кадры) : 0.770
Временной код первого кадра : 00:00:00:00
Оригинал временного кода : Group of pictures header
GOP, открыто/закрыто : Открыто
GOP, открыто/закрыто на первом кадре : Закрыто
Размер потока : 972 Мбайт (95%)
Основные цвета : BT.601 PAL
Характеристики трансфера : BT.470 System B/G
Коэффициенты матрицы : BT.470 System B/G

Аудио
Идентификатор : 189 (0xBD)-128 (0x80)
Формат : AC-3
Формат/Информация : Audio Coding 3
Коммерческое название : Dolby Digital
Режим смешивания : DVD-Video
Продолжительность : 17 м. 1 с.
Вид битрейта : Постоянный
Битрейт : 256 Кбит/сек
Каналы : 2 канала
ChannelLayout : L R
Частота : 48,0 КГц
Частота кадров : 31,250 кадров/сек (1536 SPF)
Битовая глубина : 16 бит
Метод сжатия : С потерями
Размер потока : 31,2 Мбайт (3%)
ServiceKind/String : Complete Main

Меню
Скриншоты:


Все одноименные релизы в Клубе

Время раздачи: 24/7 (до появления первых 3-5 скачавших)
[NNMClub.to]_Magiya chernaya i belaya.1983.DVD5.torrent
 Торрент: Платиновая раздача  Зарегистрирован
 
Скачать


Примагнититься
 Зарегистрирован:   05 Авг 2019 16:48:02
 Размер:   4,28 GB  (
 Рейтинг:    (Голосов: 5)
 Поблагодарили:   29
 Проверка:   Оформление проверено модератором 05 Авг 2019 16:48:39
Как cкачать  ·  Как раздать  ·  Правильно оформить  ·  Поднять ратио!  
Показать сообщения:   
Начать новую тему   Ответить на тему    Торрент-трекер NNM-Club -> Видео -> Отечественные Фильмы для детей Часовой пояс: GMT + 3
Страница 1 из 1