Классический форум-трекер
canvas not supported
Нас вместе: 4 076 508

Подмосковные вечера (1994) DVDRip


 
 
RSS
Начать новую тему   Ответить на тему    Торрент-трекер NNM-Club -> Отечественное кино -> Отечественные Фильмы (HD*Rip/LQ, DVDRip, SATRip, VHSRip)
Автор Сообщение
almikl ®
Куратор Детского.
Модератор Видео.
RG Всё лучшее - детям!
Uploader 500+
 

Online
Стаж: 12 лет 2 мес.
Сообщений: 4657
Ratio: 328,287
Поблагодарили: 104045
100%
Откуда: Дааалекое Подмосковье
russia.gif
Подмосковные вечера (1994) DVDRip
Производство: Россия, Франция
Жанр: драма

Режиссер: Валерий Тодоровский
Сценарий: Франсуа Гериф, Станислав Говорухин, Алла Криницына, ...
Продюсер: Марк Рускарт, Игорь Толстунов, Александр Гнеденко, ...
Оператор: Сергей Козлов
Композитор : Леонид Десятников
Художник: Александр Осипов
Монтаж: Елена Гагарина, Алла Стрельникова

Актеры: Ингеборга Дапкунайте, Владимир Машков, Алиса Фрейндлих, Александр Феклистов, Юрий Кузнецов, Наталья Щукина, Авангард Леонтьев, Марина Опенкина, Елена Верховская, Светлана Разгуляева, Константин Чармадов

Описание: Тридцатилетняя Катя Измайлова, впервые узнав настоящую страсть, готова уничтожить всех, кто может помешать ее счастью. Застенчивая машинистка превращается в убийцу.


Возраст: 12+ (зрителям, достигшим 12 лет)

Релиз от: almikl ®

Продолжительность: 01:31:04
Качество: DVDRip (700 mb)
Видео: XviD, 608x352, 900 Kbps
Аудио : MP3, 2 ch, 128 Kbps
[code]
Общее
Полное имя : Подмосковные вечера.1994.DVDRip.700.almikl.nnmclub .avi
Формат : AVI
Формат/Информация : Audio Video Interleave
Размер файла : 700 Мбайт
Продолжительность : 1 ч. 31 м.
Режим общего битрейта : Переменный
Общий поток : 1075 Кбит/сек
Программа кодирования : VirtualDubMod 1.5.4.1 (build 2178/release)
Библиотека кодирования : VirtualDubMod build 2178/release

Видео
Идентификатор : 0
Формат : MPEG-4 Visual
Профиль формата : Advanced Simple@L5
Настройки формата : BVOP1 / Custom Matrix
Параметр BVOP формата : 1
Параметр QPel формата : Нет
Параметр GMC формата : Без точки перехода
Параметр матрицы формата : Выборочная
Идентификатор кодека : XVID
Идентификатор кодека/Подсказка : XviD
Продолжительность : 1 ч. 31 м.
Битрейт : 947 Кбит/сек
Ширина : 608 пикселей
Высота : 352 пикселя
Соотношение сторон : 1,727
Частота кадров : 25,000 кадров/сек
Цветовое пространство : YUV
Субдискретизация насыщенности : 4:2:0
Битовая глубина : 8 бит
Тип развёртки : Прогрессивная
Метод сжатия : С потерями
Бит/(Пиксели*Кадры) : 0.177
Размер потока : 617 Мбайт (88%)
Библиотека кодирования : XviD 73

Аудио
Идентификатор : 1
Формат : MPEG Audio
Версия формата : Version 1
Профиль формата : Layer 3
Настройки формата : Joint stereo / MS Stereo
Идентификатор кодека : 55
Идентификатор кодека/Подсказка : MP3
Продолжительность : 1 ч. 31 м.
Вид битрейта : Переменный
Битрейт : 115 Кбит/сек
Номинальный битрейт : 128 Кбит/сек
Каналы : 2 канала
Частота : 48,0 КГц
Частота кадров : 41,667 кадра/сек (1152 SPF)
Метод сжатия : С потерями
Размер потока : 74,6 Мбайт (11%)
Выравнивание : Соединение по промежуткам
Продолжительность промежутка : 24 мс. (0,60 видеокадр)
Время предзагрузки промежутка : 160 мс.
Библиотека кодирования : LAME3.98r
Настройки программы : -m j -V 4 -q 2 -lowpass 17 --abr 128
Скриншоты:


Время раздачи: 24/7, круглосуточно, до 10 скачавших
Все релизы Подмосковные вечера (1994) на NNM-CLUB
Podmoskovnyie vechera.1994.DVDRip.700.almikl.nnmclub .avi.torrent
 Торрент: Серебряная раздча  Зарегистрирован
 
Зарегистрируйтесь и скачайте торрент!
27,8 KB

Примагнититься
 Зарегистрирован:   06 Авг 2019 12:42:06
 Размер:   700 MB  (
 Рейтинг:    (Голосов: 6)
 Поблагодарили:   43
 Проверка:   Оформление проверено модератором 06 Авг 2019 12:45:28
Как cкачать  ·  Как раздать  ·  Правильно оформить  ·  Поднять ратио!  
Показать сообщения:   
Начать новую тему   Ответить на тему    Торрент-трекер NNM-Club -> Отечественное кино -> Отечественные Фильмы (HD*Rip/LQ, DVDRip, SATRip, VHSRip) Часовой пояс: GMT + 3
Страница 1 из 1