Классический форум-трекер
canvas not supported
Нас вместе: 4 076 520

Подмосковные вечера (1994) DVDRip


 
 
RSS
Начать новую тему   Ответить на тему    Торрент-трекер NNM-Club -> Отечественное кино -> Отечественные Фильмы (HD*Rip/LQ, DVDRip, SATRip, VHSRip)
Автор Сообщение
almikl ®
Куратор Детского.
Модератор Видео.
RG Всё лучшее - детям!
Uploader 500+
 
Стаж: 12 лет 2 мес.
Сообщений: 4658
Ratio: 328,298
Поблагодарили: 104053
100%
Откуда: Дааалекое Подмосковье
russia.gif
Подмосковные вечера (1994) DVDRip
Производство: Россия, Франция
Жанр: драма

Режиссер: Валерий Тодоровский
Сценарий: Франсуа Гериф, Станислав Говорухин, Алла Криницына, ...
Продюсер: Марк Рускарт, Игорь Толстунов, Александр Гнеденко, ...
Оператор: Сергей Козлов
Композитор : Леонид Десятников
Художник: Александр Осипов
Монтаж: Елена Гагарина, Алла Стрельникова

Актеры: Ингеборга Дапкунайте, Владимир Машков, Алиса Фрейндлих, Александр Феклистов, Юрий Кузнецов, Наталья Щукина, Авангард Леонтьев, Марина Опенкина, Елена Верховская, Светлана Разгуляева, Константин Чармадов

Описание: Тридцатилетняя Катя Измайлова, впервые узнав настоящую страсть, готова уничтожить всех, кто может помешать ее счастью. Застенчивая машинистка превращается в убийцу.


Возраст: 12+ (зрителям, достигшим 12 лет)

Релиз от: almikl ®

Продолжительность: 01:31:04
Качество: DVDRip
Видео: XviD, 688x400, 1600 Kbps
Аудио : AC3, 6 ch, 448 Kbps
[code]
Общее
Полное имя : Подмосковные вечера.1994.DVDRip.almikl.nnmclub .avi
Формат : AVI
Формат/Информация : Audio Video Interleave
Размер файла : 1,37 Гбайт
Продолжительность : 1 ч. 31 м.
Общий поток : 2150 Кбит/сек
Программа кодирования : VirtualDubMod 1.5.4.1 (build 2178/release)
Библиотека кодирования : VirtualDubMod build 2178/release

Видео
Идентификатор : 0
Формат : MPEG-4 Visual
Профиль формата : Advanced Simple@L5
Настройки формата : BVOP1 / Custom Matrix
Параметр BVOP формата : 1
Параметр QPel формата : Нет
Параметр GMC формата : Без точки перехода
Параметр матрицы формата : Выборочная
Идентификатор кодека : XVID
Идентификатор кодека/Подсказка : XviD
Продолжительность : 1 ч. 31 м.
Битрейт : 1695 Кбит/сек
Ширина : 688 пикселей
Высота : 400 пикселей
Соотношение сторон : 1,720
Частота кадров : 25,000 кадров/сек
Цветовое пространство : YUV
Субдискретизация насыщенности : 4:2:0
Битовая глубина : 8 бит
Тип развёртки : Прогрессивная
Метод сжатия : С потерями
Бит/(Пиксели*Кадры) : 0.246
Размер потока : 1,08 Гбайт (79%)
Библиотека кодирования : XviD 73

Аудио
Идентификатор : 1
Формат : AC-3
Формат/Информация : Audio Coding 3
Коммерческое название : Dolby Digital
Идентификатор кодека : 2000
Продолжительность : 1 ч. 31 м.
Вид битрейта : Постоянный
Битрейт : 448 Кбит/сек
Каналы : 6 каналов
ChannelLayout : L R C LFE Ls Rs
Частота : 48,0 КГц
Частота кадров : 31,250 кадров/сек (1536 SPF)
Битовая глубина : 16 бит
Метод сжатия : С потерями
Размер потока : 292 Мбайт (21%)
Выравнивание : Разделение по промежуткам
Продолжительность промежутка : 96 мс. (2,40 видеокадра)
Время предзагрузки промежутка : 96 мс.
ServiceKind/String : Complete Main
Скриншоты:


Время раздачи: 24/7, круглосуточно, до 10 скачавших
Все релизы Подмосковные вечера (1994) на NNM-CLUB
Podmoskovnyie vechera.1994.DVDRip.almikl.nnmclub .avi.torrent
 Торрент: Серебряная раздча  Зарегистрирован
 
Зарегистрируйтесь и скачайте торрент!
27,8 KB

Примагнититься
 Зарегистрирован:   06 Авг 2019 12:47:55
 Размер:   1,37 GB  (
 Рейтинг:   4,7 (Голосов: 11)
 Поблагодарили:   86
 Проверка:   Оформление проверено модератором 06 Авг 2019 12:48:28
Как cкачать  ·  Как раздать  ·  Правильно оформить  ·  Поднять ратио!  
Показать сообщения:   
Начать новую тему   Ответить на тему    Торрент-трекер NNM-Club -> Отечественное кино -> Отечественные Фильмы (HD*Rip/LQ, DVDRip, SATRip, VHSRip) Часовой пояс: GMT + 3
Страница 1 из 1