Классический форум-трекер
canvas not supported
Нас вместе: 4 082 438

Подмосковные вечера (1994) DVDRemux


 
 
RSS
Начать новую тему   Ответить на тему    Торрент-трекер NNM-Club -> Отечественное кино -> Отечественные Фильмы (HD*Rip/LQ, DVDRip, SATRip, VHSRip)
Автор Сообщение
almikl ®
Куратор Детского.
Модератор Видео.
RG Всё лучшее - детям!
Uploader 500+
 
Стаж: 12 лет 5 мес.
Сообщений: 4775
Ratio: 345,909
Поблагодарили: 108270
100%
Откуда: Дааалекое Подмосковье
russia.gif
Подмосковные вечера (1994) DVDRemux
Производство: Россия, Франция
Жанр: драма

Режиссер: Валерий Тодоровский
Сценарий: Франсуа Гериф, Станислав Говорухин, Алла Криницына, ...
Продюсер: Марк Рускарт, Игорь Толстунов, Александр Гнеденко, ...
Оператор: Сергей Козлов
Композитор : Леонид Десятников
Художник: Александр Осипов
Монтаж: Елена Гагарина, Алла Стрельникова

Актеры: Ингеборга Дапкунайте, Владимир Машков, Алиса Фрейндлих, Александр Феклистов, Юрий Кузнецов, Наталья Щукина, Авангард Леонтьев, Марина Опенкина, Елена Верховская, Светлана Разгуляева, Константин Чармадов

Описание: Тридцатилетняя Катя Измайлова, впервые узнав настоящую страсть, готова уничтожить всех, кто может помешать ее счастью. Застенчивая машинистка превращается в убийцу.


Возраст: 12+ (зрителям, достигшим 12 лет)

Релиз от: almikl ®

Продолжительность: 01:31:04
Качество: DVDRemux
Видео: MPEG-2, 720x576@768x576, ~7000 Kbps
Аудио: AC3, 6 ch, 448 Kbps
[code]
Общее
Уникальный идентификатор : 250698531850608112477627497100930730851 (0xBC9AC7EC5F3ABCBA15AB4EF9A1E44B63)
Полное имя : Подмосковные вечера.1994.DVDRemux.almikl.nnmclub .mkv
Формат : Matroska
Версия формата : Version 2
Размер файла : 4,74 Гбайт
Продолжительность : 1 ч. 31 м.
Режим общего битрейта : Переменный
Общий поток : 7453 Кбит/сек
Дата кодирования : UTC 2019-08-02 09:35:17
Программа кодирования : MakeMKV v1.14.3 win(x64-release)
Библиотека кодирования : libmakemkv v1.14.3 (1.3.5/1.4.7) win(x64-release)

Видео
Идентификатор : 1
OriginalSourceMedium_ID/String : 224 (0xE0)
Формат : MPEG Video
Версия формата : Version 2
Профиль формата : Main@Main
Настройки формата : CustomMatrix / BVOP
Параметр BVOP формата : Да
Параметр матрицы формата : Выборочная
Параметр GOP формата : M=3, N=9
Структура изображения : Frame
Идентификатор кодека : V_MPEG2
Идентификатор кодека/Информация : MPEG 1 or 2 Video
Продолжительность : 1 ч. 31 м.
Вид битрейта : Переменный
Битрейт : 7000 Кбит/сек
Максимальный битрейт : 8000 Кбит/сек
Ширина : 720 пикселей
Высота : 576 пикселей
Соотношение сторон : 4:3
Режим частоты кадров : Постоянный
Частота кадров : 25,000 кадров/сек
Стандарт вещания : PAL
Цветовое пространство : YUV
Субдискретизация насыщенности : 4:2:0
Битовая глубина : 8 бит
Тип развёртки : Чересстрочная
Порядок развёртки : Верхнее поле первое
Метод сжатия : С потерями
Бит/(Пиксели*Кадры) : 0.675
Временной код первого кадра : 01:00:00:00
Оригинал временного кода : Group of pictures header
GOP, открыто/закрыто : Открыто
GOP, открыто/закрыто на первом кадре : Закрыто
Размер потока : 4,45 Гбайт (94%)
Язык : English
Default : Нет
Forced : Нет
Носитель оригинала : DVD-Video

Аудио
Идентификатор : 2
OriginalSourceMedium_ID/String : 189 (0xBD)128 (0x80)
Формат : AC-3
Формат/Информация : Audio Coding 3
Коммерческое название : Dolby Digital
Идентификатор кодека : A_AC3
Продолжительность : 1 ч. 31 м.
Вид битрейта : Постоянный
Битрейт : 448 Кбит/сек
Каналы : 6 каналов
ChannelLayout : L R C LFE Ls Rs
Частота : 48,0 КГц
Частота кадров : 31,250 кадров/сек (1536 SPF)
Битовая глубина : 16 бит
Метод сжатия : С потерями
Размер потока : 292 Мбайт (6%)
Заголовок : Surround 5.1
Язык : Russian
ServiceKind/String : Complete Main
Default : Да
Forced : Нет
Носитель оригинала : DVD-Video

Меню
00:00:00.000 : en:Chapter 01
00:07:03.640 : en:Chapter 02
00:15:35.360 : en:Chapter 03
00:24:04.080 : en:Chapter 04
00:31:40.040 : en:Chapter 05
00:40:47.280 : en:Chapter 06
00:48:40.320 : en:Chapter 07
00:57:10.240 : en:Chapter 08
01:01:43.840 : en:Chapter 09
01:08:34.080 : en:Chapter 10
01:16:31.680 : en:Chapter 11
01:23:41.080 : en:Chapter 12
Скриншоты:


Время раздачи: 24/7, круглосуточно, до 10 скачавших
Все релизы Подмосковные вечера (1994) на NNM-CLUB
Podmoskovnyie vechera.1994.DVDRemux.almikl.nnmclub .mkv.torrent
 Торрент: Платиновая раздача  Зарегистрирован
 
Скачать


Примагнититься
 Зарегистрирован:   06 Авг 2019 12:52:05
 Размер:   4,74 GB  (
 Рейтинг:   4,9 (Голосов: 14)
 Поблагодарили:   83
 Проверка:   Оформление проверено модератором 06 Авг 2019 12:52:53
Как cкачать  ·  Как раздать  ·  Правильно оформить  ·  Поднять ратио!  
datchanin.ru
Стаж: 9 лет 2 мес.
Сообщений: 701
Ratio: 79,26
100%
Скорости дайте плиз!!!
Показать сообщения:   
Начать новую тему   Ответить на тему    Торрент-трекер NNM-Club -> Отечественное кино -> Отечественные Фильмы (HD*Rip/LQ, DVDRip, SATRip, VHSRip) Часовой пояс: GMT + 3
Страница 1 из 1