Классический форум-трекер
canvas not supported
Нас вместе: 4 079 328

Без страха и упрека (1962) DVDRemux


 
 
RSS
Начать новую тему   Ответить на тему    Торрент-трекер NNM-Club -> Видео -> Отечественные Фильмы для детей
Автор Сообщение
almikl ®
Куратор Детского.
Модератор Видео.
RG Всё лучшее - детям!
Uploader 500+
 
Стаж: 12 лет 4 мес.
Сообщений: 4758
Ratio: 340,212
Поблагодарили: 107520
100%
Откуда: Дааалекое Подмосковье
russia.gif
Без страха и упрека (1962) DVDRemux
Производство: СССР
Жанр: Драма, Приключения

Режиссер: Александр Митта
Актеры: Алла Витрук, Виктор Глазков, Николай Бурляев, Савелий Крамаров, Николай Волков, Лев Золотухин, Марина Стриженова, Людмила Марченко, Анатолий Юшко, Елена Максимова, Николай Кодин, Эммануил Геллер, Елена Кононенко, Юрий Никулин, Кларина Фролова

Описание :
Командировочник Репнин приехал в Москву, чтобы отгрузить оборудование и сразу же вылететь в Заусолье, где его ждала экспедиция. Но в московской сутолоке Репнин теряет все деньги, которые находят Вадик, Юра и Тоша. Дети вошли в положение пострадавшего и решили найти его. Ключом к поискам стала программка испытаний рысаков, в которую были завернуты деньги. Дорога на ипподром оказалась длинной и интересной…


Возраст: 12+ (зрителям, достигшим 12 лет)

Продолжительность: 01:20:04
Качество видео: DVDRemux

Видео: MPEG-2, 720x576@768x576, ~6000 Kbps
Аудио: AC3, 2 ch, 384 Kbps
Общее
Уникальный идентификатор : 216361458163341853791100285145140431997 (0xA2C5B37BDDE3627D459AAD3792740C7D)
Полное имя : Без страха и упрека.1962.DVDRemux.almikl.nnmclub.mkv
Формат : Matroska
Версия формата : Version 2
Размер файла : 3,84 Гбайт
Продолжительность : 1 ч. 20 м.
Режим общего битрейта : Переменный
Общий поток : 6869 Кбит/сек
Дата кодирования : UTC 2019-08-01 10:10:50
Программа кодирования : MakeMKV v1.14.3 win(x64-release)
Библиотека кодирования : libmakemkv v1.14.3 (1.3.5/1.4.7) win(x64-release)

Видео
Идентификатор : 1
OriginalSourceMedium_ID/String : 224 (0xE0)
Формат : MPEG Video
Версия формата : Version 2
Профиль формата : Main@Main
Настройки формата : CustomMatrix / BVOP
Параметр BVOP формата : Да
Параметр матрицы формата : Выборочная
Параметр GOP формата : M=3, N=12
Структура изображения : Frame
Идентификатор кодека : V_MPEG2
Идентификатор кодека/Информация : MPEG 1 or 2 Video
Продолжительность : 1 ч. 20 м.
Вид битрейта : Переменный
Битрейт : 6480 Кбит/сек
Максимальный битрейт : 9000 Кбит/сек
Ширина : 720 пикселей
Высота : 576 пикселей
Соотношение сторон : 4:3
Режим частоты кадров : Постоянный
Частота кадров : 25,000 кадров/сек
Стандарт вещания : PAL
Цветовое пространство : YUV
Субдискретизация насыщенности : 4:2:0
Битовая глубина : 8 бит
Тип развёртки : Чересстрочная
Порядок развёртки : Верхнее поле первое
Метод сжатия : С потерями
Бит/(Пиксели*Кадры) : 0.625
Временной код первого кадра : 00:00:00:00
Оригинал временного кода : Group of pictures header
GOP, открыто/закрыто : Открыто
GOP, открыто/закрыто на первом кадре : Закрыто
Размер потока : 3,62 Гбайт (94%)
Язык : English
Default : Нет
Forced : Нет
Носитель оригинала : DVD-Video

Аудио
Идентификатор : 2
OriginalSourceMedium_ID/String : 189 (0xBD)128 (0x80)
Формат : AC-3
Формат/Информация : Audio Coding 3
Коммерческое название : Dolby Digital
Идентификатор кодека : A_AC3
Продолжительность : 1 ч. 20 м.
Вид битрейта : Постоянный
Битрейт : 384 Кбит/сек
Каналы : 2 канала
ChannelLayout : L R
Частота : 48,0 КГц
Частота кадров : 31,250 кадров/сек (1536 SPF)
Битовая глубина : 16 бит
Метод сжатия : С потерями
Размер потока : 220 Мбайт (6%)
Заголовок : Stereo
Язык : Russian
ServiceKind/String : Complete Main
Default : Да
Forced : Нет
Носитель оригинала : DVD-Video

Меню
00:00:00.080 : en:Chapter 01
00:08:49.760 : en:Chapter 02
00:17:50.240 : en:Chapter 03
00:26:26.840 : en:Chapter 04
00:35:24.440 : en:Chapter 05
00:44:33.080 : en:Chapter 06
00:52:56.240 : en:Chapter 07
01:01:44.840 : en:Chapter 08
01:10:36.560 : en:Chapter 09
Скриншоты:


Без страха и упрека на NNM-club
Время раздачи: практически ежедневно с 12 до 4 до 10 скачавших
Bez straha i upreka.1962.DVDRemux.almikl.nnmclub.mkv.torrent
 Торрент: Платиновая раздача  Зарегистрирован
 
Скачать


Примагнититься
 Зарегистрирован:   09 Авг 2019 08:37:15
 Размер:   3,84 GB  (
 Рейтинг:   4,9 (Голосов: 20)
 Поблагодарили:   118
 Проверка:   Оформление проверено модератором 09 Авг 2019 08:37:44
Как cкачать  ·  Как раздать  ·  Правильно оформить  ·  Поднять ратио!  
Petr Vojkov
Предупреждений: 1
Предупреждений: 1 
Стаж: 1 год 1 мес.
Сообщений: 241
Ratio: 1,7
62.68%
Откуда: Париж
ussr.gif
Хороший фильм. И приятно посмотреть на Москву и людей тех лет замечательного советского периода.
sled74
Стаж: 6 лет 10 мес.
Сообщений: 87
Ratio: 4,883
0.76%
Цитата:
предателю Крамарову


Расскажи мне, не предатель, где в августе 1991-го прятался? Копротивляешься вывесив красную тряпку? Сдается мне, что ты, петя-петушок, инфантил, и о времени по фильмам судишь, ты может и в супермена с бэтменом веришь?
lonz
Стаж: 9 лет 4 мес.
Сообщений: 30
Ratio: 14,403
1.91%
Тов. Вожков смотрит на "людей тех лет замечательного советского периода" в художественном фильме. Предатель... Мда...
max2008a
Стаж: 10 лет 2 мес.
Сообщений: 1708
Ratio: 4,301
Поблагодарили: 875
100%
мне кажется или на скришотах мы видим интерлейсинг или по по простому елочку на изображении
GRASHOOPER
Стаж: 7 лет 9 мес.
Сообщений: 33
Ratio: 36,102
100%
ussr.gif
Да. Чересстрочность присутствует.
Сейчас улучшаю качество видео, убираю шумы и удаляю чересстрочность для себя.
Потом, возможно, в ВК залью обработанное видео.
almikl ®
Куратор Детского.
Модератор Видео.
RG Всё лучшее - детям!
Uploader 500+
 
Стаж: 12 лет 4 мес.
Сообщений: 4758
Ratio: 340,212
Поблагодарили: 107520
100%
Откуда: Дааалекое Подмосковье
russia.gif
max2008a писал(а): Перейти к сообщению
на скришотах мы видим интерлейсинг

Да, так и есть, ведь это необработанное видео с ДВД, просто в одном файле.
А вот уже DVDRip-пы сделаны в обработанном виде, можно найти по ссылке в оформлении.
Без страха и упрека на NNM-club
izemail
Стаж: 7 лет 7 мес.
Сообщений: 11
Ratio: 6,497
2.2%
Прикольный фильм, первый раз увидел. Насчет Крамарова - его может не устраивало амплуа дурочка, уехал с надеждой, и не его вина, что комуняки обосрали все и вся.
GRASHOOPER
Стаж: 7 лет 9 мес.
Сообщений: 33
Ratio: 36,102
100%
ussr.gif
Если кому интересно, то вот обработанная и улучшенная версия в вк
https://vk.com/ :D
 !  Примечание от almikl:

Ссылки на подобные ресурсы запрещены Правилами
ПРАВИЛА ПОЛЬЗОВАНИЯ ФОРУМ-ТРЕКЕРОМ [Май 2018]
Устный пред
Показать сообщения:   
Начать новую тему   Ответить на тему    Торрент-трекер NNM-Club -> Видео -> Отечественные Фильмы для детей Часовой пояс: GMT + 3
Страница 1 из 1