Классический форум-трекер
canvas not supported
Нас вместе: 4 079 003

NUTRONIC - Subterra EP (2019) [FLAC|Lossless 16/24Bit|WEB-DL] <Drum & Bass, EDM>


 
 
RSS
Начать новую тему   Ответить на тему    Торрент-трекер NNM-Club -> HD Audio и Многоканальная Музыка -> WEB-DL-Audio
Автор Сообщение
7yhy7t ®
Стаж: 4 мес. 26 дней
Сообщений: 18
Ratio: 1,865
Поблагодарили: 384
100%
NUTRONIC - Subterra EP (2019)
Жанр: Drum & Bass, EDM
Источник: Bandcamp
Продолжительность: 27:49
Кодек: FLAC
Битрейт: Lossless (16/24Bit)

Треклист:
01. Subterra (04:29)
02. Run Away (03:53)
03. Give Into (04:35)
04. Feathers (04:36)
05. Go Dark (05:15)
06. History (04:58)

General
Complete name : D:\NUTRONIC - Subterra EP (2019) (16-24Bit WEB)\01 Subterra.flac
Format : FLAC
Format/Info : Free Lossless Audio Codec
File size : 58.4 MiB
Duration : 4 min 29 s
Overall bit rate mode : Variable
Overall bit rate : 1 815 kb/s
Album : Subterra EP
Album/Performer : NUTRONIC
Track name : Subterra
Track name/Position : 1
Performer : NUTRONIC
Genre : Drum & Bass/EDM
Recorded date : 2019
ISRC : QZ5FN1875019
Cover : Yes
Cover type : Cover (front)
Cover MIME : image/jpeg
Comment : Visit http://simplifyrecs.bandcamp.com

Audio
Format : FLAC
Format/Info : Free Lossless Audio Codec
Duration : 4 min 29 s
Bit rate mode : Variable
Bit rate : 1 810 kb/s
Channel(s) : 2 channels
Channel layout : L R
Sampling rate : 44.1 kHz
Bit depth : 24 bits
Compression mode : Lossless
Stream size : 58.2 MiB (100%)
Writing library : libFLAC 1.3.0 (UTC 2013-05-26)

General
Complete name : D:\NUTRONIC - Subterra EP (2019) (16-24Bit WEB)\02 Run Away.flac
Format : FLAC
Format/Info : Free Lossless Audio Codec
File size : 28.9 MiB
Duration : 3 min 53 s
Overall bit rate mode : Variable
Overall bit rate : 1 036 kb/s
Album : Subterra EP
Album/Performer : NUTRONIC
Track name : Run Away
Track name/Position : 2
Performer : NUTRONIC
Genre : Drum & Bass/EDM
Recorded date : 2019
ISRC : QZ5FN1911573
Cover : Yes
Cover type : Cover (front)
Cover MIME : image/jpeg
Comment : Visit http://simplifyrecs.bandcamp.com

Audio
Format : FLAC
Format/Info : Free Lossless Audio Codec
Duration : 3 min 53 s
Bit rate mode : Variable
Bit rate : 1 030 kb/s
Channel(s) : 2 channels
Channel layout : L R
Sampling rate : 44.1 kHz
Bit depth : 16 bits
Compression mode : Lossless
Stream size : 28.7 MiB (99%)
Writing library : libFLAC 1.3.0 (UTC 2013-05-26)

General
Complete name : D:\NUTRONIC - Subterra EP (2019) (16-24Bit WEB)\03 Give Into.flac
Format : FLAC
Format/Info : Free Lossless Audio Codec
File size : 35.9 MiB
Duration : 4 min 35 s
Overall bit rate mode : Variable
Overall bit rate : 1 093 kb/s
Album : Subterra EP
Album/Performer : NUTRONIC
Track name : Give Into
Track name/Position : 3
Performer : NUTRONIC
Genre : Drum & Bass/EDM
Recorded date : 2019
ISRC : USLZJ1891881
Cover : Yes
Cover type : Cover (front)
Cover MIME : image/jpeg
Comment : Visit http://simplifyrecs.bandcamp.com

Audio
Format : FLAC
Format/Info : Free Lossless Audio Codec
Duration : 4 min 35 s
Bit rate mode : Variable
Bit rate : 1 088 kb/s
Channel(s) : 2 channels
Channel layout : L R
Sampling rate : 44.1 kHz
Bit depth : 16 bits
Compression mode : Lossless
Stream size : 35.8 MiB (100%)
Writing library : libFLAC 1.3.0 (UTC 2013-05-26)

General
Complete name : D:\NUTRONIC - Subterra EP (2019) (16-24Bit WEB)\04 Feathers.flac
Format : FLAC
Format/Info : Free Lossless Audio Codec
File size : 57.0 MiB
Duration : 4 min 36 s
Overall bit rate mode : Variable
Overall bit rate : 1 731 kb/s
Album : Subterra EP
Album/Performer : NUTRONIC
Track name : Feathers
Track name/Position : 4
Performer : NUTRONIC
Genre : Drum & Bass/EDM
Recorded date : 2019
ISRC : USLZJ1823733
Cover : Yes
Cover type : Cover (front)
Cover MIME : image/jpeg
Comment : Visit http://simplifyrecs.bandcamp.com

Audio
Format : FLAC
Format/Info : Free Lossless Audio Codec
Duration : 4 min 36 s
Bit rate mode : Variable
Bit rate : 1 726 kb/s
Channel(s) : 2 channels
Channel layout : L R
Sampling rate : 44.1 kHz
Bit depth : 24 bits
Compression mode : Lossless
Stream size : 56.8 MiB (100%)
Writing library : libFLAC 1.3.0 (UTC 2013-05-26)

General
Complete name : D:\NUTRONIC - Subterra EP (2019) (16-24Bit WEB)\05 Go Dark.flac
Format : FLAC
Format/Info : Free Lossless Audio Codec
File size : 66.5 MiB
Duration : 5 min 15 s
Overall bit rate mode : Variable
Overall bit rate : 1 770 kb/s
Album : Subterra EP
Album/Performer : NUTRONIC
Track name : Go Dark
Track name/Position : 5
Performer : NUTRONIC
Genre : Drum & Bass/EDM
Recorded date : 2019
ISRC : USLZJ1854978
Cover : Yes
Cover type : Cover (front)
Cover MIME : image/jpeg
Comment : Visit http://simplifyrecs.bandcamp.com

Audio
Format : FLAC
Format/Info : Free Lossless Audio Codec
Duration : 5 min 15 s
Bit rate mode : Variable
Bit rate : 1 766 kb/s
Channel(s) : 2 channels
Channel layout : L R
Sampling rate : 44.1 kHz
Bit depth : 24 bits
Compression mode : Lossless
Stream size : 66.4 MiB (100%)
Writing library : libFLAC 1.3.0 (UTC 2013-05-26)

General
Complete name : D:\NUTRONIC - Subterra EP (2019) (16-24Bit WEB)\06 History.flac
Format : FLAC
Format/Info : Free Lossless Audio Codec
File size : 57.9 MiB
Duration : 4 min 58 s
Overall bit rate mode : Variable
Overall bit rate : 1 626 kb/s
Album : Subterra EP
Album/Performer : NUTRONIC
Track name : History
Track name/Position : 6
Performer : NUTRONIC
Genre : Drum & Bass/EDM
Recorded date : 2019
ISRC : USLZJ1948669
Cover : Yes
Cover type : Cover (front)
Cover MIME : image/jpeg
Comment : Visit http://simplifyrecs.bandcamp.com

Audio
Format : FLAC
Format/Info : Free Lossless Audio Codec
Duration : 4 min 58 s
Bit rate mode : Variable
Bit rate : 1 621 kb/s
Channel(s) : 2 channels
Channel layout : L R
Sampling rate : 44.1 kHz
Bit depth : 24 bits
Compression mode : Lossless
Stream size : 57.7 MiB (100%)
Writing library : libFLAC 1.3.0 (UTC 2013-05-26)
Время раздачи: 24/7 (круглосуточно) (до появления первых 3-5 скачавших)
[NNMClub.to]_NUTRONIC - Subterra EP (2019) (16-24Bit WEB).torrent
 Торрент: Платиновая раздача  Зарегистрирован
 
Скачать


Примагнититься
 Зарегистрирован:   15 Авг 2019 19:50:44
 Размер:   308 MB  (
 Рейтинг:    (Голосов: 7)
 Поблагодарили:   45
 Проверка:   Оформление проверено модератором 18 Авг 2019 13:27:52
Как cкачать  ·  Как раздать  ·  Правильно оформить  ·  Поднять ратио!  
Загрузка...
Kaydanator
Стаж: 3 года 11 мес.
Сообщений: 3
Ratio: 6,524
0.29%
Что-то в духе старых Pendulum, оч понравилось.
Показать сообщения:   
Начать новую тему   Ответить на тему    Торрент-трекер NNM-Club -> HD Audio и Многоканальная Музыка -> WEB-DL-Audio Часовой пояс: GMT + 3
Страница 1 из 1