Классический форум-трекер
canvas not supported
Нас вместе: 4 078 859

猫 シ Corp. & t e l e p a t h - Building a Better World (2019) [FLAC|Lossless|WEB-DL] <Ambient, Post-Vaporwave, New Age>


 
 
RSS
Начать новую тему   Ответить на тему    Торрент-трекер NNM-Club -> HD Audio и Многоканальная Музыка -> WEB-DL-Audio
Автор Сообщение
7yhy7t ®
Стаж: 4 мес. 28 дней
Сообщений: 18
Ratio: 1,865
Поблагодарили: 384
100%
猫 シ Corp. & t e l e p a t h - Building a Better World (2019)
Жанр: Ambient, Post-Vaporwave, New Age
Источник: Bandcamp
Продолжительность: 40:36

Кодек: FLAC
Битрейт: Lossless|WEB-DL

Треклист:
01. 目覚め (03:27)
02. Dawn over the Metropolis (03:46)
03. Sector 131 (03:30)
04. Lost Promises (04:59)
05. 世界の果て (04:32)
06. Building a Better World (06:15)
07. Hiraeth V (07:14)
08. 進化 (03:38)
09. A New Life Awaits You (03:10)

foobar2000 1.4.1 / Dynamic Range Meter 1.1.1
log date: 2019-08-16 09:27:48

--------------------------------------------------------------------------------
Analyzed: 猫 シ Corp. & t e l e p a t h / Building a Better World
--------------------------------------------------------------------------------

DR Peak RMS Duration Track
--------------------------------------------------------------------------------
DR11 0.00 dB -14.13 dB 3:27 01-目覚め
DR11 -0.84 dB -16.15 dB 3:47 02-Dawn over the Metropolis
DR10 -3.89 dB -18.01 dB 3:30 03-Sector 131
DR10 0.00 dB -12.40 dB 4:59 04-Lost Promises
DR11 -1.79 dB -14.97 dB 4:33 05-世界の果て
DR11 -3.75 dB -17.63 dB 6:16 06-Building a Better World
DR11 -6.94 dB -21.23 dB 7:15 07-Hiraeth V
DR10 -6.51 dB -21.06 dB 3:39 08-進化
DR10 -4.16 dB -21.23 dB 3:11 09-A New Life Awaits You
--------------------------------------------------------------------------------

Number of tracks: 9
Official DR value: DR11

Samplerate: 48000 Hz
Channels: 2
Bits per sample: 24
Bitrate: 1607 kbps
Codec: FLAC
================================================================================
YouTube

Время раздачи: 24/7 (круглосуточно) (до появления первых 3-5 скачавших)
[NNMClub.to]_&#29483; &#12471; Corp. & t e l e p a t h - Building a Better World (2019) (24Bit WEB).torrent
 Торрент: Платиновая раздача  Зарегистрирован
 
Скачать


Примагнититься
 Зарегистрирован:   16 Авг 2019 14:39:33
 Размер:   467 MB  (
 Рейтинг:    (Голосов: 8)
 Поблагодарили:   43
 Проверка:   Оформление проверено модератором 19 Авг 2019 20:48:36
Как cкачать  ·  Как раздать  ·  Правильно оформить  ·  Поднять ратио!  
Загрузка...
Показать сообщения:   
Начать новую тему   Ответить на тему    Торрент-трекер NNM-Club -> HD Audio и Многоканальная Музыка -> WEB-DL-Audio Часовой пояс: GMT + 3
Страница 1 из 1