Классический форум-трекер
canvas not supported
Нас вместе: 4 077 957

Уилл Макинтош | Фоллер (2018) [M4B|AAC]


 
 
RSS
Начать новую тему   Ответить на тему    Торрент-трекер NNM-Club -> Аудио и Видео -> Аудиокниги (AAC)
Автор Сообщение
trybag ®
Стаж: 6 лет 6 мес.
Сообщений: 189
Ratio: 15,336
Поблагодарили: 5907
100%
Уилл Макинтош | Фоллер
Автор: Уилл Макинтош
Год: 2018
Жанр: Фантастика
Продолжительность: 14:56:35
Читает: Михаил Росляков
Издательство: Нигде не купишь

Описание: День первый: никто ничего не помнит, ни себя, ни друзей, ни семью. Действительность как будто фрагментирована, и Земля состоит из обломка скалы, плавающего в бесконечном небе. В кармане у Фоллера подсказки: фотография его и женщины, которую он не может вспомнить, игрушечный солдат с парашютом и таинственная карта, заляпанная кровью. Обладая лишь этим немногим, Фоллер решается на прыжок. Он встречает другие плавучие острова и удивительно точные копии себя и других людей, и в конце концов узнает, что есть один человек, который ненавидит его и желает мести, только Фоллер не помнит за что.

Формат: M4B
Аудиокодек: AAC
Битрейт: 128 kbps
Частота: 48,0 KHz
Разбивка на главы: есть
Вшитая обложка: есть
Музыкальное сопровождение: нет

Код: выделить все
Общее
Полное имя                               : Фоллер 1.m4b
Формат                                   : MPEG-4
Профиль формата                          : Apple audio with iTunes position
Идентификатор кодека                     : M4B  (M4B /mp42/isom)
Размер файла                             : 327 Мбайт
Продолжительность                        : 7 ч. 22 м.
Режим общего битрейта                    : Переменный
Общий поток                              : 103 Кбит/сек
Альбом                                   : Фоллер
Альбом/Исполнитель                       : Уилл Макинтош
Трек                                     : Фоллер 1
Трек/Положение                           : 1
Трек/Всего                               : 2
Исполнитель                              : Уилл Макинтош
Композитор                               : Михаил Росляков
Издатель                                 : Нигде не купишь
Жанр                                     : Фантастика
Дата записи                              : 2018
Дата кодирования                         : UTC 2019-08-20 11:56:23
Дата пометки                             : UTC 2019-08-20 13:42:41
Обложка                                  : Yes
art                                      : Уилл Макинтош

Аудио
Идентификатор                            : 1
Формат                                   : AAC LC
Формат/Информация                        : Advanced Audio Codec Low Complexity
Идентификатор кодека                     : mp4a-40-2
Продолжительность                        : 7 ч. 22 м.
Продолжительность оригинала              : 7 ч. 22 м.
Вид битрейта                             : Переменный
Битрейт                                  : 102 Кбит/сек
Номинальный битрейт                      : 128 Кбит/сек
Максимальный битрейт                     : 106 Кбит/сек
Каналы                                   : 2 канала
Channel layout                           : L R
Частота                                  : 48,0 КГц
Частота кадров                           : 46,875 кадров/сек (1024 SPF)
Метод сжатия                             : С потерями
Размер потока                            : 321 Мбайт (98%)
Размер потока оригинала                  : 321 Мбайт (98%)
Дата кодирования                         : UTC 2019-08-20 11:56:23
Дата пометки                             : UTC 2019-08-20 13:42:41
Menus                                    : 2

Меню
Идентификатор                            : 2
Идентификатор кодека                     : text
Продолжительность                        : 7 ч. 22 м.
Язык                                     : English
Дата кодирования                         : UTC 2019-08-20 17:36:00
Дата пометки                             : UTC 2019-08-20 17:36:00
Menu For                                 : 1
Продолжительность оригинала              : 26543020
Количество кадров оригинала              : 38
Размер потока оригинала                  : 722
Счётчик кадров                           : 38
Размер потока                            : 722
00:00:00.000                             : 1
00:12:59.797                             : 2
00:36:23.722                             : 3
00:44:17.067                             : 4
00:52:26.944                             : 5
00:59:53.152                             : 6
01:06:55.616                             : 7
01:19:50.422                             : 8
01:35:03.510                             : Глава 1
01:56:20.885                             : 9
02:02:16.427                             : Глава 2
02:25:02.421                             : 10
02:28:33.109                             : 11
02:31:48.202                             : Глава 3
02:38:19.477                             : 12
02:52:45.226                             : Глава 4
03:05:37.600                             : 13
03:21:21.280                             : Глава 5
03:32:53.269                             : 14
03:52:54.335                             : Глава 6
04:02:38.720                             : 15
04:24:36.501                             : 16
04:32:39.466                             : Глава 7
04:40:46.762                             : 17
04:44:58.367                             : 18
05:07:20.170                             : Глава 8
05:14:11.989                             : 19
05:27:19.871                             : Глава 9
05:33:14.580                             : 20
05:41:33.119                             : Глава 10
05:53:43.658                             : 21
05:57:40.543                             : 22
05:59:28.426                             : Глава 11
06:14:43.114                             : 23
06:24:13.290                             : 24
06:35:58.783                             : Глава 12
06:45:46.708                             : 25
06:57:43.743                             : 26
Вид битрейта                             : VBR

Общее
Полное имя                               : Фоллер 2.m4b
Формат                                   : MPEG-4
Профиль формата                          : Apple audio with iTunes position
Идентификатор кодека                     : M4B  (M4B /mp42/isom)
Размер файла                             : 335 Мбайт
Продолжительность                        : 7 ч. 34 м.
Режим общего битрейта                    : Переменный
Общий поток                              : 103 Кбит/сек
Альбом                                   : Фоллер
Альбом/Исполнитель                       : Уилл Макинтош
Трек                                     : Фоллер 2
Трек/Положение                           : 2
Трек/Всего                               : 2
Исполнитель                              : Уилл Макинтош
Композитор                               : Михаил Росляков
Издатель                                 : Нигде не купишь
Жанр                                     : Фантастика
Дата записи                              : 2018
Дата кодирования                         : UTC 2019-08-20 12:44:02
Дата пометки                             : UTC 2019-08-20 13:42:49
Обложка                                  : Yes
art                                      : Уилл Макинтош

Аудио
Идентификатор                            : 1
Формат                                   : AAC LC
Формат/Информация                        : Advanced Audio Codec Low Complexity
Идентификатор кодека                     : mp4a-40-2
Продолжительность                        : 7 ч. 34 м.
Продолжительность оригинала              : 7 ч. 34 м.
Вид битрейта                             : Переменный
Битрейт                                  : 101 Кбит/сек
Номинальный битрейт                      : 128 Кбит/сек
Максимальный битрейт                     : 106 Кбит/сек
Каналы                                   : 2 канала
Channel layout                           : L R
Частота                                  : 48,0 КГц
Частота кадров                           : 46,875 кадров/сек (1024 SPF)
Метод сжатия                             : С потерями
Размер потока                            : 330 Мбайт (98%)
Размер потока оригинала                  : 330 Мбайт (98%)
Дата кодирования                         : UTC 2019-08-20 12:44:02
Дата пометки                             : UTC 2019-08-20 13:42:49
Menus                                    : 2

Меню
Идентификатор                            : 2
Идентификатор кодека                     : text
Продолжительность                        : 7 ч. 34 м.
Язык                                     : English
Дата кодирования                         : UTC 2019-08-20 17:37:44
Дата пометки                             : UTC 2019-08-20 17:37:44
Menu For                                 : 1
Продолжительность оригинала              : 27252224
Количество кадров оригинала              : 47
Размер потока оригинала                  : 917
Счётчик кадров                           : 47
Размер потока                            : 917
00:00:00.000                             : Глава 13
00:09:42.400                             : 27
00:18:35.797                             : Глава 14
00:28:11.328                             : 28
00:45:29.621                             : Глава 15
00:51:46.795                             : 29
00:56:12.224                             : 30
00:59:01.355                             : Глава 16
01:27:32.928                             : 31
01:31:10.250                             : 32
01:32:43.648                             : Глава 17
01:38:47.637                             : 33
01:44:10.965                             : Глава 18
01:58:18.901                             : 34
02:16:38.250                             : 35
02:23:09.077                             : Глава 19
02:28:14.037                             : 36
02:56:03.391                             : 37
03:05:11.274                             : Глава 20
03:12:18.367                             : 38
03:26:20.458                             : 39
03:40:57.706                             : Глава 21
03:43:50.143                             : 40
04:13:12.682                             : 41
04:26:10.474                             : Глава 22
04:37:34.442                             : 42
04:43:35.957                             : 43
04:55:04.277                             : Глава 23
05:08:11.178                             : 44
05:13:31.647                             : 45
05:21:49.418                             : Глава 24
05:25:10.463                             : 46
05:30:19.861                             : 47
05:32:02.645                             : Глава 25
05:40:41.920                             : 48
05:47:48.735                             : 49
05:59:21.578                             : Глава 26
06:03:43.359                             : 50
06:13:30.495                             : 51
06:47:58.250                             : Глава 27
06:58:21.737                             : 52
07:00:25.065                             : 53
07:13:34.356                             : 54
07:17:51.572                             : 55
07:21:55.561                             : 56
07:25:59.870                             : 57
07:28:57.940                             : 58
Вид битрейта                             : VBR

[NNMClub.to]_Foller.torrent
 Торрент:   Зарегистрирован
 
Зарегистрируйтесь и скачайте торрент!
13,3 KB

Примагнититься
 Зарегистрирован:   20 Авг 2019 17:01:25
 Размер:   662 MB  (
 Рейтинг:    (Голосов: 2)
 Поблагодарили:   23
 Проверка:   Оформление проверено модератором 21 Авг 2019 12:06:40
WebMoney кошелек: R662717423455
Как cкачать  ·  Как раздать  ·  Правильно оформить  ·  Поднять ратио!  
Показать сообщения:   
Начать новую тему   Ответить на тему    Торрент-трекер NNM-Club -> Аудио и Видео -> Аудиокниги (AAC) Часовой пояс: GMT + 3
Страница 1 из 1