Классический форум-трекер
canvas not supported
Нас вместе: 4 079 078

Bungou Stray Dogs (2019) / Bungo Stray Dogs 3 / Великий из бродячих псов [ТВ-3] [2019, TV, 12 ep] WEB-DL 1080p Rus


 
 
RSS
Начать новую тему   Ответить на тему    Торрент-трекер NNM-Club -> Аниме с озвучкой -> Аниме с озвучкой (FullHD)
Автор Сообщение
Ampho_DnB ®
RG Аниме
Uploader 100+
 
Стаж: 7 лет 9 мес.
Сообщений: 3723
Ratio: 324,03
Поблагодарили: 86724
100%
Откуда: дует?
roody.gif
Bungou Stray Dogs (2019) / Bungo Stray Dogs 3 / Великий из бродячих псов [ТВ-3]
Жанр: приключения, комедия, мистика
Тип: TV-сериал
Продолжительность: 12 эпизодов по 25 минут
Выпуск: c 12.04.2019 по 28.06.2019
Автор: Асагири Кафка
Снято по манге: Bungou Stray Dogs
Режиссер: Игараси Такуя
Производство: BONES
Информационные ссылки: AniDB || World Art || MAL || ANN
Релиз подготовлен студией Kansai
  • Тип озвучки: Многоголосая, закадровая

Описание:
В суровом японском обществе проблемных сирот выбрасывают из приюта на улицу – живи как хочешь. Именно так юный Ацуси Накадзима отправился «в большую жизнь» без гроша в кармане. Умирающий с голода изгой решил ограбить первого встречного – а вместо того вытащил из реки какую-то подозрительную личность. Спасенный по имени Осаму Дадзай оказался хорошим парнем, суицидальным маньяком, ну а по совместительству - членом тайного «Агентства боевых детективов» со сверхъестественными способностями!

Да, в этом удивительном мире полно чудес, и люди, способные на них, часто не уважают закон. Как сражаться с мафиози, если они легко превращаются в неуязвимых монстров? Для этого и было создано «Агентство боевых детективов», каждый из которых и сам кое на что способен – от безупречной дедукции до силовых действий. В компании чудиков и оригиналов нашлось место и бродяге Ацуси – его способность тут пришлась ко двору, ведь милый и стеснительный юноша может с полным правом заявить – не будите во мне зверя!
Качество: WEB-DLRip | Энкод: HorribleSubs
Язык озвучки: Японский и Русский
Формат: MKV
Видео: x264, 1920x1080, ~4 579 kbps, 23.976 fps
Аудио: AAC, 128 kbps, 44.1 kHz, 2 ch
Аудио: AAC, 192 kbps, 48.0 kHz, 2 ch
01. Dazai, Chuuya, Fifteen Years Old
02. God of Fire
03. A Diamond is Only a Diamond
04. My Ill Deeds Are the Work of God
05. Slap the Stick and Addict
06. Herurisu / A Father`s Portrait
07. Fitzgerald Rising
08. The Masked Assassin
09. Cannibalism (Part 1)
10. Cannibalism (Part 2)
11. Cannibalism (Part 3)
12. Echo
General
Unique ID : 94941755794344835647057912621166322690 (0x476D1DF6B50A2030CE781D5EB63D6402)
Complete name : Bungou Stray Dogs 3 [KANSAI]\[KANSAI] Bungou Stray Dogs 3 - 26 [1080p].mkv
Format : Matroska
Format version : Version 4
File size : 829 MiB
Duration : 23 min 40 s
Overall bit rate : 4 899 kb/s
Encoded date : UTC 2019-08-24 07:17:13
Writing application : mkvmerge v36.0.0 ('Is That Jazz?') 64-bit
Writing library : libebml v1.3.9 + libmatroska v1.5.2

Video
ID : 1
Format : AVC
Format/Info : Advanced Video Codec
Format profile : High@L4
Format settings : CABAC / 4 Ref Frames
Format settings, CABAC : Yes
Format settings, Reference : 4 frames
Codec ID : V_MPEG4/ISO/AVC
Duration : 23 min 40 s
Bit rate : 4 579 kb/s
Width : 1 920 pixels
Height : 1 080 pixels
Display aspect ratio : 16:9
Frame rate mode : Constant
Frame rate : 23.976 (24000/1001) FPS
Color space : YUV
Chroma subsampling : 4:2:0
Bit depth : 8 bits
Scan type : Progressive
Bits/(Pixel*Frame) : 0.092
Stream size : 775 MiB (93%)
Writing library : x264 core 142
Encoding settings : cabac=1 / ref=4 / deblock=1:1:1 / analyse=0x3:0x113 / me=umh / subme=8 / psy=1 / psy_rd=0.40:0.00 / mixed_ref=1 / me_range=16 / chroma_me=1 / trellis=1 / 8x8dct=1 / cqm=0 / deadzone=21,11 / fast_pskip=1 / chroma_qp_offset=-2 / threads=12 / lookahead_threads=2 / sliced_threads=0 / nr=0 / decimate=1 / interlaced=0 / bluray_compat=0 / constrained_intra=0 / bframes=3 / b_pyramid=2 / b_adapt=2 / b_bias=0 / direct=3 / weightb=1 / open_gop=0 / weightp=2 / keyint=9999999 / keyint_min=5000000 / scenecut=0 / intra_refresh=0 / rc_lookahead=50 / rc=crf / mbtree=1 / crf=15.0 / qcomp=0.60 / qpmin=0 / qpmax=69 / qpstep=4 / vbv_maxrate=8000 / vbv_bufsize=12000 / crf_max=0.0 / nal_hrd=none / filler=0 / ip_ratio=1.40 / aq=1:0.60
Default : Yes
Forced : No

Audio #1
ID : 2
Format : AAC LC
Format/Info : Advanced Audio Codec Low Complexity
Codec ID : A_AAC-2
Duration : 23 min 40 s
Bit rate : 192 kb/s
Channel(s) : 2 channels
Channel layout : L R
Sampling rate : 48.0 kHz
Frame rate : 46.875 FPS (1024 SPF)
Compression mode : Lossy
Delay relative to video : -83 ms
Stream size : 32.1 MiB (4%)
Language : Russian
Default : Yes
Forced : No

Audio #2
ID : 3
Format : AAC LC
Format/Info : Advanced Audio Codec Low Complexity
Codec ID : A_AAC-2
Duration : 23 min 40 s
Bit rate : 128 kb/s
Channel(s) : 2 channels
Channel layout : L R
Sampling rate : 44.1 kHz
Frame rate : 43.066 FPS (1024 SPF)
Compression mode : Lossy
Delay relative to video : -83 ms
Stream size : 21.7 MiB (3%)
Language : Japanese
Default : No
Forced : No


Время раздачи: До первых сидов
[NNMClub.to]_Bungou Stray Dogs 3 [KANSAI].torrent
 Торрент: Платиновая раздача  Зарегистрирован
 
Скачать


Примагнититься
 Зарегистрирован:   24 Авг 2019 11:02:42
 Размер:   10,3 GB  (
 Рейтинг:   5 (Голосов: 13)
 Поблагодарили:   23
 Проверка:   Оформление проверено модератором 24 Авг 2019 18:22:49
Как cкачать  ·  Как раздать  ·  Правильно оформить  ·  Поднять ратио!  
Загрузка...
Simfesik
Стаж: 3 года 7 мес.
Сообщений: 340
Ratio: 0,529
1.44%
Спасибо) Забыл уже про этот мультец.
Показать сообщения:   
Начать новую тему   Ответить на тему    Торрент-трекер NNM-Club -> Аниме с озвучкой -> Аниме с озвучкой (FullHD) Часовой пояс: GMT + 3
Страница 1 из 1