Классический форум-трекер
canvas not supported
Нас вместе: 4 078 240

Kawaikereba Hentai demo Suki ni Natte Kuremasu ka? / Hensuki / Влюбишься ли ты в извращенку, если она милая? [2019, TV, 11 из 12] WEB-DL 1080p Rus


 
 
RSS
Начать новую тему   Ответить на тему    Торрент-трекер NNM-Club -> Аниме с озвучкой -> Онгоинги с озвучкой
Автор Сообщение
Ampho_DnB ®
RG Аниме
Uploader 100+
 
Стаж: 7 лет 8 мес.
Сообщений: 3690
Ratio: 301,447
Поблагодарили: 84060
100%
Откуда: дует?
roody.gif
Kawaikereba Hentai demo Suki ni Natte Kuremasu ka?
Hensuki: Are You Willing to Fall in Love With a Pervert, As Long As She's a Cutie?
Влюбишься ли ты в извращенку, если она милая?

Жанр: комедия, романтика, этти
Тип: TV-сериал
Продолжительность: 11 из 12 эпизодов по 25 минут
Выпуск: c 08.07.2019 по 23.09.2019
Автор: Ханама Томо
Снято по ранобэ: Kawaiikereba Hentai demo Suki ni Natte Kuremasu ka?
Режиссер: Имадзаки Ицуки
Производство: Geek Toys, Seven
Информационные ссылки: AniDB || World Art || MAL || ANN
Релиз подготовлен группой Anilibria
  • Тип озвучки: Трёхголосая, закадровая

Описание:
Тихую и беззаботную школьную жизнь Кэйки Кирю разрушает неожиданное любовное письмо. Парень был на седьмом небе от счастья, ведь впервые за всю его жизнь у него появится девушка. Но с письмом не всё так гладко: имени отправителя попросту нет, но вместо этого Кэйки обнаруживает белое женское белье рядом с конвертом. В ходе поисков «Золушки, которая оставила после себя трусики» парень понимает, что каждая из возможных кандидаток имеет извращённые наклонности и желания, в которых действующим лицом является не кто иной, как сам Кэйки Кирю. Именно так было положено начало новой романтической гарем-комедии!
Качество: WEB-DLRip | Энкод: HorribleSubs
Язык озвучки: Японский и Русский
Формат: MKV
Видео: x264, 1920x1080, ~8 000 kbps, 23.976 fps
Аудио: AAC, 253 kbps, 48.0 kHz, 2 ch
Аудио: AAC, 197 kbps, 48.0 kHz, 2 ch
Субтитры: ASS, Отключаемые, Надписи
01. Cinderella Dropped Her Panties!?
02. Indecisive Prince?!
03. Cinderella is Shy?!
04. Cinderella can't come out?!
05. Operation: Koharu is a first-year student
06. Cinderella came falling down?!
07. Operation: Koharu is a first-year student - Conclusion
08. The Prince Lost His Panties?!
09. Operation: Keiki Is Master Now!
10. The Prince Became a Slave?!
11. Cinderella took off her swimwear?!
General
Unique ID : 150574111201369637977644181064125878484 (0x714784DAA480A49B42B5CEF58C0590D4)
Complete name : HenSuki [AniLibria]\[AniLibria] HenSuki - 01 [1080p].mkv
Format : Matroska
Format version : Version 4
File size : 1.38 GiB
Duration : 23 min 50 s
Overall bit rate : 8 308 kb/s
Encoded date : UTC 2019-08-24 18:02:02
Writing application : mkvmerge v36.0.0 ('Is That Jazz?') 64-bit
Writing library : libebml v1.3.9 + libmatroska v1.5.2
Attachments : 13921.ttf / v_Augie_v1.03.ttf / v_DigitalStrip_v1.5.ttf / 10352_.ttf

Video
ID : 1
Format : AVC
Format/Info : Advanced Video Codec
Format profile : High@L4
Format settings : CABAC / 4 Ref Frames
Format settings, CABAC : Yes
Format settings, Reference : 4 frames
Codec ID : V_MPEG4/ISO/AVC
Duration : 23 min 50 s
Bit rate : 8 000 kb/s
Width : 1 920 pixels
Height : 1 080 pixels
Display aspect ratio : 16:9
Frame rate mode : Constant
Frame rate : 23.976 (24000/1001) FPS
Color space : YUV
Chroma subsampling : 4:2:0
Bit depth : 8 bits
Scan type : Progressive
Bits/(Pixel*Frame) : 0.161
Stream size : 1.31 GiB (95%)
Title : Original
Writing library : x264 core 157 r2948 dada181
Encoding settings : cabac=1 / ref=1 / deblock=1:0:0 / analyse=0x3:0x113 / me=hex / subme=7 / psy=1 / psy_rd=1.00:0.00 / mixed_ref=0 / me_range=16 / chroma_me=1 / trellis=1 / 8x8dct=1 / cqm=0 / deadzone=21,11 / fast_pskip=1 / chroma_qp_offset=-2 / threads=24 / lookahead_threads=4 / sliced_threads=0 / nr=0 / decimate=1 / interlaced=0 / bluray_compat=0 / constrained_intra=0 / bframes=2 / b_pyramid=2 / b_adapt=1 / b_bias=0 / direct=1 / weightb=1 / open_gop=0 / weightp=2 / keyint=48 / keyint_min=4 / scenecut=40 / intra_refresh=0 / rc_lookahead=40 / rc=cbr / mbtree=1 / bitrate=8000 / ratetol=1.0 / qcomp=0.60 / qpmin=0 / qpmax=69 / qpstep=4 / vbv_maxrate=8000 / vbv_bufsize=24000 / nal_hrd=none / filler=0 / ip_ratio=1.40 / aq=1:1.00
Language : Japanese
Default : Yes
Forced : Yes

Audio #1
ID : 2
Format : AAC LC
Format/Info : Advanced Audio Codec Low Complexity
Codec ID : A_AAC-2
Duration : 23 min 50 s
Bit rate : 197 kb/s
Channel(s) : 2 channels
Channel layout : L R
Sampling rate : 48.0 kHz
Frame rate : 46.875 FPS (1024 SPF)
Compression mode : Lossy
Delay relative to video : -42 ms
Stream size : 33.5 MiB (2%)
Title : AniLibria.TV
Language : Japanese
Default : Yes
Forced : Yes

Audio #2
ID : 3
Format : AAC LC
Format/Info : Advanced Audio Codec Low Complexity
Codec ID : A_AAC-2
Duration : 23 min 50 s
Bit rate : 253 kb/s
Channel(s) : 2 channels
Channel layout : L R
Sampling rate : 48.0 kHz
Frame rate : 46.875 FPS (1024 SPF)
Compression mode : Lossy
Delay relative to video : -42 ms
Stream size : 43.2 MiB (3%)
Title : Original
Language : Japanese
Default : No
Forced : No

Text
ID : 4
Format : ASS
Codec ID : S_TEXT/ASS
Codec ID/Info : Advanced Sub Station Alpha
Duration : 23 min 17 s
Bit rate : 18 b/s
Count of elements : 20
Compression mode : Lossless
Stream size : 3.13 KiB (0%)
Title : Надписи
Language : Russian
Default : Yes
Forced : Yes


Время раздачи: До первых сидов
[NNMClub.to]_HenSuki [AniLibria].torrent
 Торрент:   Зарегистрирован
 
Зарегистрируйтесь и скачайте торрент!
77 KB

Примагнититься
 Зарегистрирован:   17 Сен 2019 07:50:43
 Размер:   15,2 GB  (
 Рейтинг:   4,5 (Голосов: 13)
 Поблагодарили:   42
 Проверка:   Оформление проверено модератором 17 Сен 2019 08:45:24
Как cкачать  ·  Как раздать  ·  Правильно оформить  ·  Поднять ратио!  
Ampho_DnB ®
RG Аниме
Uploader 100+
 
Стаж: 7 лет 8 мес.
Сообщений: 3690
Ratio: 301,447
Поблагодарили: 84060
100%
Откуда: дует?
roody.gif
Торрент обновлен. Добавлена 8 серия.
Ampho_DnB ®
RG Аниме
Uploader 100+
 
Стаж: 7 лет 8 мес.
Сообщений: 3690
Ratio: 301,447
Поблагодарили: 84060
100%
Откуда: дует?
roody.gif
Торрент обновлен. Добавлена 9 серия.
Ampho_DnB ®
RG Аниме
Uploader 100+
 
Стаж: 7 лет 8 мес.
Сообщений: 3690
Ratio: 301,447
Поблагодарили: 84060
100%
Откуда: дует?
roody.gif
Торрент обновлен. Добавлена 10 серия.
Ampho_DnB ®
RG Аниме
Uploader 100+
 
Стаж: 7 лет 8 мес.
Сообщений: 3690
Ratio: 301,447
Поблагодарили: 84060
100%
Откуда: дует?
roody.gif
Торрент обновлен. Добавлена 11 серия.
Vugluscr
Стаж: 9 лет 6 мес.
Сообщений: 668
Ratio: 2,113
100%
Какие у них адские названия...
Показать сообщения:   
Начать новую тему   Ответить на тему    Торрент-трекер NNM-Club -> Аниме с озвучкой -> Онгоинги с озвучкой Часовой пояс: GMT + 3
Страница 1 из 1