Классический форум-трекер
canvas not supported
Нас вместе: 4 078 836

Vinland Saga / Сага о Винланде [2019, TV, 12 из 24] WEB-DL 1080p Rus


 
 
RSS
Начать новую тему   Ответить на тему    Торрент-трекер NNM-Club -> Аниме с озвучкой -> Онгоинги с озвучкой
Автор Сообщение
Ampho_DnB ®
RG Аниме
Uploader 100+
 
Стаж: 7 лет 8 мес.
Сообщений: 3721
Ratio: 323,697
Поблагодарили: 86720
100%
Откуда: дует?
roody.gif
Vinland Saga / Сага о Винланде
Жанр: приключения, история, драма
Тип: TV-сериал
Продолжительность: 12 из 24 эпизодов по 25 минут
Выпуск: c 08.07.2019
Автор: Юкимура Макото
Снято по манге: Сага о Винланде
Режиссер: Ябута Сюхэй
Производство: Wit Studio
Информационные ссылки: AniDB || World Art || MAL || ANN
Релиз подготовлен студией Amber
  • Тип озвучки: Многоголосая, закадровая

Описание:
Эта история начинается в начале XI века, когда господствовавшие в северных морях викинги начинают захват Англии. В эпоху, когда топор являлся более весомым аргументом, чем слово, маленький мальчик теряет своего отца. Став на путь воина, он жаждет честного поединка с убийцей своего отца. Юноша вступает в отряд своего врага и выполняет для него самые сложные задания, получая в награду право на дуэль. Но в каждой их дуэли он проигрывает опыту и возрасту соперника. Продолжая свою жизнь наёмника, невольно он становится участником куда более серьёзного мирового конфликта.
Качество: WEB-DLRip | Энкод: HorribleSubs
Язык озвучки: Японский и Русский
Формат: MKV
Видео: x264, 1920x1080, ~1 776 kbps, 23.976 fps
Аудио: AAC, 128 kbps, 44.1 kHz, 2 ch
Аудио: AAC, 192 kbps, 48.0 kHz, 2 ch
01. Somewhere Not Here
02. Sword
03. Troll
04. A True Warrior
05. The Troll`s Son
06. The Journey Begins
07. Normanni
08. Beyond the Edge of the Sea
09. The Battle of London Bridge
10. Ragnarok
11. A Gamble
12. The Land on the Far Bank
General
Unique ID : 220066510621427411738365553493660811904 (0xA58F44AC713FB28B842A6AA604364280)
Complete name : Vinland Saga [Amber]\[Amber] Vinland Saga - 01 [1080p].mkv
Format : Matroska
Format version : Version 4
File size : 863 MiB
Duration : 28 min 45 s
Overall bit rate : 4 199 kb/s
Encoded date : UTC 2019-08-31 13:47:13
Writing application : mkvmerge v37.0.0 ('Leave It') 64-bit
Writing library : libebml v1.3.9 + libmatroska v1.5.2

Video
ID : 1
Format : AVC
Format/Info : Advanced Video Codec
Format profile : High@L4
Format settings : CABAC / 4 Ref Frames
Format settings, CABAC : Yes
Format settings, Reference : 4 frames
Codec ID : V_MPEG4/ISO/AVC
Duration : 28 min 45 s
Bit rate : 3 878 kb/s
Width : 1 920 pixels
Height : 1 080 pixels
Display aspect ratio : 16:9
Frame rate mode : Constant
Frame rate : 23.976 (24000/1001) FPS
Color space : YUV
Chroma subsampling : 4:2:0
Bit depth : 8 bits
Scan type : Progressive
Bits/(Pixel*Frame) : 0.078
Stream size : 798 MiB (92%)
Default : Yes
Forced : No
Color range : Limited
Color primaries : BT.709
Transfer characteristics : BT.709
Matrix coefficients : BT.709

Audio #1
ID : 2
Format : AAC LC
Format/Info : Advanced Audio Codec Low Complexity
Codec ID : A_AAC-2
Duration : 28 min 45 s
Bit rate : 192 kb/s
Channel(s) : 2 channels
Channel layout : L R
Sampling rate : 48.0 kHz
Frame rate : 46.875 FPS (1024 SPF)
Compression mode : Lossy
Stream size : 38.9 MiB (5%)
Language : Russian
Default : Yes
Forced : No

Audio #2
ID : 3
Format : AAC LC
Format/Info : Advanced Audio Codec Low Complexity
Codec ID : A_AAC-2
Duration : 28 min 45 s
Bit rate : 128 kb/s
Channel(s) : 2 channels
Channel layout : L R
Sampling rate : 48.0 kHz
Frame rate : 46.875 FPS (1024 SPF)
Compression mode : Lossy
Stream size : 26.3 MiB (3%)
Language : Japanese
Default : No
Forced : No


Время раздачи: До первых сидов
[NNMClub.to]_Vinland Saga [Amber].torrent
 Торрент:   Зарегистрирован
 
Зарегистрируйтесь и скачайте торрент!
43,4 KB

Примагнититься
 Зарегистрирован:   07 Окт 2019 20:12:46
 Размер:   8,45 GB  (
 Рейтинг:   4,9 (Голосов: 14)
 Поблагодарили:   31
 Проверка:   Оформление проверено модератором 07 Окт 2019 21:21:31
Как cкачать  ·  Как раздать  ·  Правильно оформить  ·  Поднять ратио!  
Загрузка...
Ampho_DnB ®
RG Аниме
Uploader 100+
 
Стаж: 7 лет 8 мес.
Сообщений: 3721
Ratio: 323,697
Поблагодарили: 86720
100%
Откуда: дует?
roody.gif
Торрент обновлен. Добавлены 6-9 серии.
Ampho_DnB ®
RG Аниме
Uploader 100+
 
Стаж: 7 лет 8 мес.
Сообщений: 3721
Ratio: 323,697
Поблагодарили: 86720
100%
Откуда: дует?
roody.gif
Торрент обновлен. Добавлена 10 серия.
Ampho_DnB ®
RG Аниме
Uploader 100+
 
Стаж: 7 лет 8 мес.
Сообщений: 3721
Ratio: 323,697
Поблагодарили: 86720
100%
Откуда: дует?
roody.gif
Торрент обновлен. Добавлена 11 серия.
Egg
Стаж: 9 лет
Сообщений: 1863
Ratio: 14,529
Поблагодарили: 1277
100%
russia.gif
Такое впечатление, что авторы то ли очень странные поклонники Горо Миядзаки, то ли его злостные хейтеры. Жаль только, что анимация подкачала, а сражения это просто отпад. В отрицательном смысле.

_________________
Он был очень образованным человеком: в его браузере закладка на Википедию стояла первой.
Ampho_DnB ®
RG Аниме
Uploader 100+
 
Стаж: 7 лет 8 мес.
Сообщений: 3721
Ratio: 323,697
Поблагодарили: 86720
100%
Откуда: дует?
roody.gif
Торрент обновлен. Добавлена 12 серия.
Xottabi4
Стаж: 6 лет 10 мес.
Сообщений: 5
Ratio: 22,108
36.84%
Спасибо, озвучка ТОП! :да: Новая студия радует!
yuri113vV
Стаж: 1 год 8 мес.
Сообщений: 61
Ratio: 1,358
100%
Откуда: арамбарат
poland.gif
в чём отличие данной раздачи от раздачи на Amber?
Ampho_DnB ®
RG Аниме
Uploader 100+
 
Стаж: 7 лет 8 мес.
Сообщений: 3721
Ratio: 323,697
Поблагодарили: 86720
100%
Откуда: дует?
roody.gif
yuri113vV писал(а): Перейти к сообщению
в чём отличие данной раздачи от раздачи на Amber?

ни в чем, убрано лого для будущего сведения для БД.
Показать сообщения:   
Начать новую тему   Ответить на тему    Торрент-трекер NNM-Club -> Аниме с озвучкой -> Онгоинги с озвучкой Часовой пояс: GMT + 3
Страница 1 из 1