Классический форум-трекер
canvas not supported
Нас вместе: 4 079 337

Матрос Чижик (1955) DVDRip


 
 
RSS
Начать новую тему   Ответить на тему    Торрент-трекер NNM-Club -> Видео -> Отечественные Фильмы для детей
Автор Сообщение
almikl ®
Куратор Детского.
Модератор Видео.
RG Всё лучшее - детям!
Uploader 500+
 
Стаж: 12 лет 4 мес.
Сообщений: 4759
Ratio: 340,842
Поблагодарили: 107549
100%
Откуда: Дааалекое Подмосковье
russia.gif
Матрос Чижик (1955) DVDRip
Производство: СССР
Жанр: Семейный, мелодрама

Режиссер: Владимир Браун
Актеры: Михаил Кузнецов, Владимир Емельянов, Анатолий Мельников, Надежда Чередниченко, Надежда Семенцова, Сергей Петров, Иван Рыжов, Владимир Тягушев

Описание : По мотивам рассказа К. М. Станюковича «Нянька». Получив ранение во время учений, матрос Федос Чижик (Кузнецов) направляется денщиком в дом капитана Лузгина. Супруга капитана — молодая, красивая женщина — очень жестко обращается с денщиком, постоянно унижая его, считая холопом, человеком третьего сорта. Единственная отрада в жизни матроса — общение с маленьким барчуком Шурой, добрым, справедливым и чутким мальчиком. Однажды, не выдержав оскорблений хозяйки, денщик решает бежать из дома. Остановило его лишь непредвиденное обстоятельство — тяжелейшее воспаление легких у ребенка. Неусыпной нянькой, ни на минуту не покидая Шуру, сидел Чижик у его постели, буквально вырывая мальчика из лап смерти. Только тогда поняла женщина, как была несправедлива к душевно щедрому и доброму человеку.


Возраст: 12+ (зрителям, достигшим 12 лет)
Релиз от: almikl ®

Продолжительность: 01:21:38
Качество видео: DVDRip (700 mb)

Видео: XviD, 720x544, ~1000 Kbps
Аудио: MP3, 2 ch, 128 Kbps

Общее
Полное имя : Матрос Чижик.1955.DVDRip.700.almikl.nnmclub.avi
Формат : AVI
Формат/Информация : Audio Video Interleave
Размер файла : 699 Мбайт
Продолжительность : 1 ч. 21 м.
Режим общего битрейта : Переменный
Общий поток : 1197 Кбит/сек
Программа кодирования : VirtualDubMod 1.5.4.1 (build 2178/release)
Библиотека кодирования : VirtualDubMod build 2178/release

Видео
Идентификатор : 0
Формат : MPEG-4 Visual
Профиль формата : Advanced Simple@L5
Настройки формата : BVOP1 / Custom Matrix
Параметр BVOP формата : 1
Параметр QPel формата : Нет
Параметр GMC формата : Без точки перехода
Параметр матрицы формата : Выборочная
Идентификатор кодека : XVID
Идентификатор кодека/Подсказка : XviD
Продолжительность : 1 ч. 21 м.
Битрейт : 1081 Кбит/сек
Ширина : 720 пикселей
Высота : 544 пикселя
Соотношение сторон : 4:3
Частота кадров : 25,000 кадров/сек
Цветовое пространство : YUV
Субдискретизация насыщенности : 4:2:0
Битовая глубина : 8 бит
Тип развёртки : Прогрессивная
Метод сжатия : С потерями
Бит/(Пиксели*Кадры) : 0.110
Размер потока : 631 Мбайт (90%)
Библиотека кодирования : XviD 73

Аудио
Идентификатор : 1
Формат : MPEG Audio
Версия формата : Version 1
Профиль формата : Layer 3
Настройки формата : Joint stereo
Идентификатор кодека : 55
Идентификатор кодека/Подсказка : MP3
Продолжительность : 1 ч. 21 м.
Вид битрейта : Переменный
Битрейт : 104 Кбит/сек
Номинальный битрейт : 128 Кбит/сек
Каналы : 2 канала
Частота : 48,0 КГц
Частота кадров : 41,667 кадра/сек (1152 SPF)
Метод сжатия : С потерями
Размер потока : 60,5 Мбайт (9%)
Выравнивание : Соединение по промежуткам
Продолжительность промежутка : 24 мс. (0,60 видеокадр)
Время предзагрузки промежутка : 567 мс.
Библиотека кодирования : LAME3.98r
Настройки программы : -m j -V 4 -q 2 -lowpass 17 --abr 128
Скриншоты:

Все одноименные релизы в Клубе

Время раздачи: 24/7 (до появления первых 3-5 скачавших)
Matros CHizhik.1955.DVDRip.700.almikl.nnmclub.avi.torrent
 Торрент: Платиновая раздача  Зарегистрирован
 
Скачать


Примагнититься
 Зарегистрирован:   05 Сен 2019 12:51:04
 Размер:   699 MB  (
 Рейтинг:   4,9 (Голосов: 11)
 Поблагодарили:   44
 Проверка:   Оформление проверено модератором 05 Сен 2019 13:03:14
Как cкачать  ·  Как раздать  ·  Правильно оформить  ·  Поднять ратио!  
aqela
Стаж: 9 лет 3 мес.
Сообщений: 543
Ratio: 14,597
100%
ussr.gif
И рассказ читал, и фильм видал. Хорошие. :клево:
Показать сообщения:   
Начать новую тему   Ответить на тему    Торрент-трекер NNM-Club -> Видео -> Отечественные Фильмы для детей Часовой пояс: GMT + 3
Страница 1 из 1