Классический форум-трекер
canvas not supported
Нас вместе: 4 078 836

Матрос Чижик (1955) DVDRip


 
 
RSS
Начать новую тему   Ответить на тему    Торрент-трекер NNM-Club -> Видео -> Отечественные Фильмы для детей
Автор Сообщение
almikl ®
Куратор Детского.
Модератор Видео.
RG Всё лучшее - детям!
Uploader 500+
 
Стаж: 12 лет 4 мес.
Сообщений: 4755
Ratio: 338,903
Поблагодарили: 107411
100%
Откуда: Дааалекое Подмосковье
russia.gif
Матрос Чижик (1955) DVDRip
Производство: СССР
Жанр: Семейный, мелодрама

Режиссер: Владимир Браун
Актеры: Михаил Кузнецов, Владимир Емельянов, Анатолий Мельников, Надежда Чередниченко, Надежда Семенцова, Сергей Петров, Иван Рыжов, Владимир Тягушев

Описание : По мотивам рассказа К. М. Станюковича «Нянька». Получив ранение во время учений, матрос Федос Чижик (Кузнецов) направляется денщиком в дом капитана Лузгина. Супруга капитана — молодая, красивая женщина — очень жестко обращается с денщиком, постоянно унижая его, считая холопом, человеком третьего сорта. Единственная отрада в жизни матроса — общение с маленьким барчуком Шурой, добрым, справедливым и чутким мальчиком. Однажды, не выдержав оскорблений хозяйки, денщик решает бежать из дома. Остановило его лишь непредвиденное обстоятельство — тяжелейшее воспаление легких у ребенка. Неусыпной нянькой, ни на минуту не покидая Шуру, сидел Чижик у его постели, буквально вырывая мальчика из лап смерти. Только тогда поняла женщина, как была несправедлива к душевно щедрому и доброму человеку.


Возраст: 12+ (зрителям, достигшим 12 лет)
Релиз от: almikl ®

Продолжительность: 01:21:38
Качество видео: DVDRip

Видео: XviD, 720x544, ~2200 Kbps
Аудио: AC3, 2 ch, 192 Kbps

Общее
Полное имя : Матрос Чижик.1955.DVDRip.almikl.nnmclub.avi
Формат : AVI
Формат/Информация : Audio Video Interleave
Размер файла : 1,37 Гбайт
Продолжительность : 1 ч. 21 м.
Общий поток : 2397 Кбит/сек
Программа кодирования : VirtualDubMod 1.5.4.1 (build 2178/release)
Библиотека кодирования : VirtualDubMod build 2178/release

Видео
Идентификатор : 0
Формат : MPEG-4 Visual
Профиль формата : Advanced Simple@L5
Настройки формата : BVOP1 / Custom Matrix
Параметр BVOP формата : 1
Параметр QPel формата : Нет
Параметр GMC формата : Без точки перехода
Параметр матрицы формата : Выборочная
Идентификатор кодека : XVID
Идентификатор кодека/Подсказка : XviD
Продолжительность : 1 ч. 21 м.
Битрейт : 2198 Кбит/сек
Ширина : 720 пикселей
Высота : 544 пикселя
Соотношение сторон : 4:3
Частота кадров : 25,000 кадров/сек
Цветовое пространство : YUV
Субдискретизация насыщенности : 4:2:0
Битовая глубина : 8 бит
Тип развёртки : Прогрессивная
Метод сжатия : С потерями
Бит/(Пиксели*Кадры) : 0.225
Размер потока : 1,25 Гбайт (92%)
Библиотека кодирования : XviD 73

Аудио
Идентификатор : 1
Формат : AC-3
Формат/Информация : Audio Coding 3
Коммерческое название : Dolby Digital
Идентификатор кодека : 2000
Продолжительность : 1 ч. 21 м.
Вид битрейта : Постоянный
Битрейт : 192 Кбит/сек
Каналы : 2 канала
ChannelLayout : L R
Частота : 48,0 КГц
Частота кадров : 31,250 кадров/сек (1536 SPF)
Битовая глубина : 16 бит
Метод сжатия : С потерями
Размер потока : 112 Мбайт (8%)
Выравнивание : Разделение по промежуткам
Продолжительность промежутка : 96 мс. (2,40 видеокадра)
Время предзагрузки промежутка : 96 мс.
ServiceKind/String : Complete Main
Скриншоты:

Все одноименные релизы в Клубе

Время раздачи: 24/7 (до появления первых 3-5 скачавших)
Matros CHizhik.1955.DVDRip.almikl.nnmclub.avi.torrent
 Торрент: Платиновая раздача  Зарегистрирован
 
Скачать


Примагнититься
 Зарегистрирован:   06 Сен 2019 12:24:22
 Размер:   1,37 GB  (
 Рейтинг:    (Голосов: 5)
 Поблагодарили:   33
 Проверка:   Оформление проверено модератором 06 Сен 2019 12:25:00
Как cкачать  ·  Как раздать  ·  Правильно оформить  ·  Поднять ратио!  
Загрузка...
Показать сообщения:   
Начать новую тему   Ответить на тему    Торрент-трекер NNM-Club -> Видео -> Отечественные Фильмы для детей Часовой пояс: GMT + 3
Страница 1 из 1