Классический форум-трекер
canvas not supported
Нас вместе: 4 078 872

Матрос Чижик (1955) DVDRip [H.264]


 
 
RSS
Начать новую тему   Ответить на тему    Торрент-трекер NNM-Club -> Видео -> Отечественные Фильмы для детей
Автор Сообщение
almikl ®
Куратор Детского.
Модератор Видео.
RG Всё лучшее - детям!
Uploader 500+
 
Стаж: 12 лет 4 мес.
Сообщений: 4755
Ratio: 339,009
Поблагодарили: 107413
100%
Откуда: Дааалекое Подмосковье
russia.gif
Матрос Чижик (1955) DVDRip
Производство: СССР
Жанр: Семейный, мелодрама

Режиссер: Владимир Браун
Актеры: Михаил Кузнецов, Владимир Емельянов, Анатолий Мельников, Надежда Чередниченко, Надежда Семенцова, Сергей Петров, Иван Рыжов, Владимир Тягушев

Описание : По мотивам рассказа К. М. Станюковича «Нянька». Получив ранение во время учений, матрос Федос Чижик (Кузнецов) направляется денщиком в дом капитана Лузгина. Супруга капитана — молодая, красивая женщина — очень жестко обращается с денщиком, постоянно унижая его, считая холопом, человеком третьего сорта. Единственная отрада в жизни матроса — общение с маленьким барчуком Шурой, добрым, справедливым и чутким мальчиком. Однажды, не выдержав оскорблений хозяйки, денщик решает бежать из дома. Остановило его лишь непредвиденное обстоятельство — тяжелейшее воспаление легких у ребенка. Неусыпной нянькой, ни на минуту не покидая Шуру, сидел Чижик у его постели, буквально вырывая мальчика из лап смерти. Только тогда поняла женщина, как была несправедлива к душевно щедрому и доброму человеку.


Возраст: 12+ (зрителям, достигшим 12 лет)
Релиз от: almikl ®

Продолжительность: 01:21:38
Качество видео: DVDRip

Видео: AVC\H.264, 680x508, ~2100 Kbps
Аудио: AC3, 2 ch, 192 Kbps

Общее
Уникальный идентификатор : 236635506454959130332799754804938433073 (0xB206573D4599071D46D74BFC31B46231)
Полное имя : Матрос Чижик.1955.DVDRip.h264.almikl.nnmclub.mkv
Формат : Matroska
Версия формата : Version 2
Размер файла : 1,31 Гбайт
Продолжительность : 1 ч. 21 м.
Общий поток : 2302 Кбит/сек
Дата кодирования : UTC 2019-09-03 09:32:30
Программа кодирования : mkvmerge v36.0.0 ('Is That Jazz?') 64-bit
Библиотека кодирования : libebml v1.3.9 + libmatroska v1.5.2

Видео
Идентификатор : 1
Формат : AVC
Формат/Информация : Advanced Video Codec
Профиль формата : High@L4.1
Настройки формата : CABAC / 7 Ref Frames
Параметр CABAC формата : Да
Параметр RefFrames формата : 7 кадров
Идентификатор кодека : V_MPEG4/ISO/AVC
Продолжительность : 1 ч. 21 м.
Битрейт : 2108 Кбит/сек
Ширина : 680 пикселей
Высота : 508 пикселей
Соотношение сторон : 4:3
Режим частоты кадров : Постоянный
Частота кадров : 25,000 кадров/сек
Цветовое пространство : YUV
Субдискретизация насыщенности : 4:2:0
Битовая глубина : 8 бит
Тип развёртки : Прогрессивная
Бит/(Пиксели*Кадры) : 0.244
Размер потока : 1,20 Гбайт (92%)
Библиотека кодирования : x264 core 157 r2969 d4099dd
Настройки программы : cabac=1 / ref=7 / deblock=1:-2:-2 / analyse=0x3:0x133 / me=umh / subme=10 / psy=1 / psy_rd=1.00:0.25 / mixed_ref=1 / me_range=24 / chroma_me=1 / trellis=2 / 8x8dct=1 / cqm=0 / deadzone=6,6 / fast_pskip=0 / chroma_qp_offset=-4 / threads=6 / lookahead_threads=1 / sliced_threads=0 / nr=0 / decimate=0 / interlaced=0 / bluray_compat=0 / constrained_intra=0 / bframes=9 / b_pyramid=2 / b_adapt=2 / b_bias=0 / direct=1 / weightb=1 / open_gop=0 / weightp=2 / keyint=240 / keyint_min=23 / scenecut=40 / intra_refresh=0 / rc_lookahead=40 / rc=2pass / mbtree=1 / bitrate=2108 / ratetol=1.0 / qcomp=0.60 / qpmin=0 / qpmax=69 / qpstep=4 / cplxblur=20.0 / qblur=0.5 / vbv_maxrate=50000 / vbv_bufsize=62500 / nal_hrd=none / filler=0 / ip_ratio=1.10 / aq=3:0.80
Default : Да
Forced : Нет

Аудио
Идентификатор : 2
Формат : AC-3
Формат/Информация : Audio Coding 3
Коммерческое название : Dolby Digital
Идентификатор кодека : A_AC3
Продолжительность : 1 ч. 21 м.
Вид битрейта : Постоянный
Битрейт : 192 Кбит/сек
Каналы : 2 канала
ChannelLayout : L R
Частота : 48,0 КГц
Частота кадров : 31,250 кадров/сек (1536 SPF)
Битовая глубина : 16 бит
Метод сжатия : С потерями
Размер потока : 112 Мбайт (8%)
Язык : new
ServiceKind/String : Complete Main
Default : Да
Forced : Нет
Скриншоты:

Все одноименные релизы в Клубе

Время раздачи: 24/7 (до появления первых 3-5 скачавших)
Matros CHizhik.1955.DVDRip.h264.almikl.nnmclub.mkv.torrent
 Торрент: Платиновая раздача  Зарегистрирован
 
Скачать


Примагнититься
 Зарегистрирован:   06 Сен 2019 12:28:44
 Размер:   1,31 GB  (
 Рейтинг:    (Голосов: 5)
 Поблагодарили:   31
 Проверка:   Оформление проверено модератором 06 Сен 2019 12:29:18
Как cкачать  ·  Как раздать  ·  Правильно оформить  ·  Поднять ратио!  
Загрузка...
Показать сообщения:   
Начать новую тему   Ответить на тему    Торрент-трекер NNM-Club -> Видео -> Отечественные Фильмы для детей Часовой пояс: GMT + 3
Страница 1 из 1