Классический форум-трекер
canvas not supported
Нас вместе: 4 079 573

Матрос Чижик (1955) DVDRemux


 
 
RSS
Начать новую тему   Ответить на тему    Торрент-трекер NNM-Club -> Видео -> Отечественные Фильмы для детей
Автор Сообщение
almikl ®
Куратор Детского.
Модератор Видео.
RG Всё лучшее - детям!
Uploader 500+
 
Стаж: 12 лет 4 мес.
Сообщений: 4759
Ratio: 340,813
Поблагодарили: 107549
100%
Откуда: Дааалекое Подмосковье
russia.gif
Матрос Чижик (1955) DVDRemux
Производство: СССР
Жанр: Семейный, мелодрама

Режиссер: Владимир Браун
Актеры: Михаил Кузнецов, Владимир Емельянов, Анатолий Мельников, Надежда Чередниченко, Надежда Семенцова, Сергей Петров, Иван Рыжов, Владимир Тягушев

Описание : По мотивам рассказа К. М. Станюковича «Нянька». Получив ранение во время учений, матрос Федос Чижик (Кузнецов) направляется денщиком в дом капитана Лузгина. Супруга капитана — молодая, красивая женщина — очень жестко обращается с денщиком, постоянно унижая его, считая холопом, человеком третьего сорта. Единственная отрада в жизни матроса — общение с маленьким барчуком Шурой, добрым, справедливым и чутким мальчиком. Однажды, не выдержав оскорблений хозяйки, денщик решает бежать из дома. Остановило его лишь непредвиденное обстоятельство — тяжелейшее воспаление легких у ребенка. Неусыпной нянькой, ни на минуту не покидая Шуру, сидел Чижик у его постели, буквально вырывая мальчика из лап смерти. Только тогда поняла женщина, как была несправедлива к душевно щедрому и доброму человеку.


Возраст: 12+ (зрителям, достигшим 12 лет)
Релиз от: almikl ®

Продолжительность: 01:21:38
Качество видео: DVDRemux

Видео: MPEG-2, 720x576@768x576, ~6000 Kbps
Аудио: AC3, 2 ch, 192 Kbps

Общее
Уникальный идентификатор : 98415948096816178684730210401705047331 (0x4A0A38DE761F6287A38903290F5CB523)
Полное имя : Матрос Чижик.1955.DVDRemux.almikl.nnmclub.mkv
Формат : Matroska
Версия формата : Version 2
Размер файла : 3,71 Гбайт
Продолжительность : 1 ч. 21 м.
Режим общего битрейта : Переменный
Общий поток : 6497 Кбит/сек
Дата кодирования : UTC 2019-09-02 08:29:18
Программа кодирования : MakeMKV v1.14.3 win(x64-release)
Библиотека кодирования : libmakemkv v1.14.3 (1.3.5/1.4.7) win(x64-release)

Видео
Идентификатор : 1
OriginalSourceMedium_ID/String : 224 (0xE0)
Формат : MPEG Video
Версия формата : Version 2
Профиль формата : Main@Main
Настройки формата : CustomMatrix / BVOP
Параметр BVOP формата : Да
Параметр матрицы формата : Выборочная
Параметр GOP формата : M=3, N=15
Структура изображения : Frame
Идентификатор кодека : V_MPEG2
Идентификатор кодека/Информация : MPEG 1 or 2 Video
Продолжительность : 1 ч. 21 м.
Вид битрейта : Переменный
Битрейт : 6300 Кбит/сек
Максимальный битрейт : 9300 Кбит/сек
Ширина : 720 пикселей
Высота : 576 пикселей
Соотношение сторон : 4:3
Режим частоты кадров : Постоянный
Частота кадров : 25,000 кадров/сек
Стандарт вещания : PAL
Цветовое пространство : YUV
Субдискретизация насыщенности : 4:2:0
Битовая глубина : 8 бит
Тип развёртки : Чересстрочная
Порядок развёртки : Нижнее поле первое
Метод сжатия : С потерями
Бит/(Пиксели*Кадры) : 0.608
Временной код первого кадра : 00:00:00:00
Оригинал временного кода : Group of pictures header
Размер потока : 3,59 Гбайт (97%)
Язык : English
Default : Нет
Forced : Нет
Носитель оригинала : DVD-Video

Аудио
Идентификатор : 2
OriginalSourceMedium_ID/String : 189 (0xBD)128 (0x80)
Формат : AC-3
Формат/Информация : Audio Coding 3
Коммерческое название : Dolby Digital
Идентификатор кодека : A_AC3
Продолжительность : 1 ч. 21 м.
Вид битрейта : Постоянный
Битрейт : 192 Кбит/сек
Каналы : 2 канала
ChannelLayout : L R
Частота : 48,0 КГц
Частота кадров : 31,250 кадров/сек (1536 SPF)
Битовая глубина : 16 бит
Метод сжатия : С потерями
Размер потока : 112 Мбайт (3%)
Заголовок : Stereo
Язык : English
ServiceKind/String : Complete Main
Default : Да
Forced : Нет
Носитель оригинала : DVD-Video

Меню
00:00:00.000 : en:Chapter 01
00:01:30.160 : en:Chapter 02
00:08:14.400 : en:Chapter 03
00:14:28.840 : en:Chapter 04
00:20:58.200 : en:Chapter 05
00:27:10.040 : en:Chapter 06
00:34:05.240 : en:Chapter 07
00:40:16.840 : en:Chapter 08
00:45:57.480 : en:Chapter 09
00:52:02.160 : en:Chapter 10
00:58:18.160 : en:Chapter 11
01:05:16.920 : en:Chapter 12
01:12:31.440 : en:Chapter 13
Скриншоты:

Все одноименные релизы в Клубе

Время раздачи: 24/7 (до появления первых 3-5 скачавших)
Matros CHizhik.1955.DVDRemux.almikl.nnmclub.mkv.torrent
 Торрент: Платиновая раздача  Зарегистрирован
 
Скачать


Примагнититься
 Зарегистрирован:   06 Сен 2019 12:35:07
 Размер:   3,71 GB  (
 Рейтинг:   4,9 (Голосов: 26)
 Поблагодарили:   71
 Проверка:   Оформление проверено модератором 06 Сен 2019 12:35:54
Как cкачать  ·  Как раздать  ·  Правильно оформить  ·  Поднять ратио!  
Kedmi
Стаж: 9 мес. 20 дней
Сообщений: 737
Ratio: 13,19
100%
israel.gif
Отличный фильм. Поучительный

_________________
Неспособный выдержать плохое, не доживет, чтобы увидеть хорошее
balu109
Стаж: 7 лет 10 мес.
Сообщений: 293
Ratio: 4,687
2.08%
Откуда: Kharkiv
ukraine.gif
очень теплый и добрый фильм. Да и рассказы Станюковича читаются с интересом.
sergej178
 
Стаж: 12 лет 8 мес.
Сообщений: 282
Ratio: 3,846
100%
Откуда: СОЮЗ
ussr.gif
Сейчас Такое не снимают! Посмотрел с Удовольствием! Спасибо Советским Людям за Такой шедевр, и тем кто Выкладывает такое Здесь!

_________________

Показать сообщения:   
Начать новую тему   Ответить на тему    Торрент-трекер NNM-Club -> Видео -> Отечественные Фильмы для детей Часовой пояс: GMT + 3
Страница 1 из 1