Классический форум-трекер
canvas not supported
Нас вместе: 4 076 813

Горец / Highlander (1986) BDRip [H.264/720p] [Director's Cut]


 
 
RSS
Начать новую тему   Ответить на тему    Торрент-трекер NNM-Club -> Классика кино и Старые фильмы до 90-х -> Зарубежная Классика (HD, UHD, UHD-LQ, 3D)
Автор Сообщение
HaMeRock ®
Стаж: 10 лет 5 мес.
Сообщений: 95
Ratio: 20,973
Раздал: 3,587 TB
Поблагодарили: 8162
100%
Откуда: Воронеж (FreeDom)
Горец / Highlander (1986) BDRip [H.264/720p] [Director's Cut]
Производство: США, Великобритания / 20th Century Fox, Highlander Productions Limited, Thorn EMI Screen Entertainment
Жанр: Фэнтези, Боевик, Приключения, Триллер

Режиссер: Рассел Малкэй
Продюсер: Питер С. Дэвис, Уильям Н. Пэнзер, Е. С. Монелл
Актеры: Кристофер Ламберт, Роксанна Харт, Клэнси Браун, Шон Коннери, Бети Эдни, Алан Норт, Шила Гиш, Джон Полито, Хью Куарши, Кристофер Малкольм

Описание:
Коннор Маклауд — шотландец, который в 1536 году был сражен в битве, но мистическим образом воскрес, и родной клан изгнал его. Учителем Маклауда стал испанский дворянин, объяснивший, что он принадлежит к бессмертной расе воинов, которых можно лишить жизни, лишь обезглавив мечом…
Сражение между Маклаудом и его вечным врагом Курганом, начавшееся в Шотландии XVI века, продолжается в современном Манхеттене. От исхода этой битвы зависит судьба всех смертных. Это часть дуэли, продолжающейся веками.


Возраст: 16+ (зрителям, достигшим 16 лет)
Рейтинг MPAA: R (лицам до 17 лет обязательно присутствие взрослого)

Продолжительность: 01:56:39
Качество видео: BDRip
Перевод: Многоголосый, Авторский
Субтитры: Русские, Английские, Французские

Видео: AVC/H.264, 1280x692, ~7409 kbps
Аудио#1: DTS, 6 ch, 768 kbps - Русский, многоголосый ''Superbit''
Аудио#2: AC3, 6 ch, 448 kbps - Русский, многоголосый ''Video-BIZ''
Аудио#3: AC3, 6 ch, 448 kbps - Русский, авторский ''А. Гаврилов''
Аудио#4: AC3, 6 ch, 448 kbps - Русский, авторский ''В. Горчаков''
Аудио#5: AC3, 6 ch, 448 kbps - Русский, авторский ''Ю. Живов''
Аудио#6: DTS, 6 ch, 768 kbps - Английский
Аудио#7: AC3, 2 ch, 160 kbps - Русский, Комментарии режиссера и продюсера
Скриншоты:


Все одноименные релизы в Клубе
Время раздачи: 24/7 (круглосуточно) (до появления первых 3-5 скачавших)Реставрация от: master-13
[NNM-Club.ru] Highlander.torrent
 Торрент: Платиновая раздача  Зарегистрирован
 
Скачать


Примагнититься
 Зарегистрирован:   30 Мар 2019 08:03:23
 Размер:   8,86 GB  (
 Рейтинг:   4,8 (Голосов: 82)
 Поблагодарили:   294
 Проверка:   Оформление проверено модератором 30 Мар 2019 22:54:57
Как cкачать  ·  Как раздать  ·  Правильно оформить  ·  Поднять ратио!  
Jack Hunt
 
Стаж: 12 лет 3 мес.
Сообщений: 323
Ratio: 43,595
100%
Откуда: Пермь
russia.gif
А где-раздача,то? Вторые сутки в очереди.... :(
HaMeRock ®
Стаж: 10 лет 5 мес.
Сообщений: 95
Ratio: 20,973
Раздал: 3,587 TB
Поблагодарили: 8162
100%
Откуда: Воронеж (FreeDom)
Ребята извините, на раздаче круглые сутки, внешний канал 1000 кбит/с, полностью отдан на эту раздачу, но скорость прыгает, то уходит на максимум, то полностью пропадает, вот я и не могу понять то ли это проблема в провайдере, то ли во мне, если кто сталкивался с таким, напишите пожалуйста в ЛС
Jack Hunt
 
Стаж: 12 лет 3 мес.
Сообщений: 323
Ratio: 43,595
100%
Откуда: Пермь
russia.gif
Спасибо, скачал. Это мой мю торрент чего-то затупил. Поставил форсированный старт и все за 10 часов скачалось. Остаюсь на раздаче. :клево:
Logvinoff01
Стаж: 8 лет 6 мес.
Сообщений: 130
Ratio: 0,697
4.95%
редкий материал и раздает обычно максимум 2-3 человека.
master-13
Новогодний эрудит
Стаж: 10 лет 3 мес.
Сообщений: 596
Ratio: 279,303
Поблагодарили: 26431
100%
Откуда: из пролетариев
ussr.gif
Горец / Highlander [Director's Cut] (1986) BDRip
Производство: США, Великобритания / 20th Century Fox, Highlander Productions Limited, Thorn EMI Screen Entertainment
Жанр: Фэнтези, Боевик, Приключения, Триллер

Режиссер: Рассел Малкэй
Продюсер: Питер С. Дэвис, Уильям Н. Пэнзер, Е. С. Монелл
Актеры: Кристофер Ламберт, Роксанна Харт, Клэнси Браун, Шон Коннери, Бети Эдни, Алан Норт, Шила Гиш, Джон Полито, Хью Куарши, Кристофер Малкольм

Описание:
Коннор Маклауд — шотландец, который в 1536 году был сражен в битве, но мистическим образом воскрес, и родной клан изгнал его. Учителем Маклауда стал испанский дворянин, объяснивший, что он принадлежит к бессмертной расе воинов, которых можно лишить жизни, лишь обезглавив мечом…

Сражение между Маклаудом и его вечным врагом Курганом, начавшееся в Шотландии XVI века, продолжается в современном Манхеттене. От исхода этой битвы зависит судьба всех смертных. Это часть дуэли, продолжающейся веками.


Возраст: 16+ (зрителям, достигшим 16 лет)
Рейтинг MPAA: R (лицам до 17 лет обязательно присутствие взрослого)

Продолжительность: 01:56:39
Качество видео: BDRip
Перевод: Профессиональный (многоголосый, закадровый), Авторский (одноголосый, закадровый)
Субтитры: Russian, English, French

Видео: AVC/H.264, 1280x692, ~7409 Кбит/сек
Аудио#1: Russian: 48 kHz, DTS, 3/2 (L,C,R,l,r) + LFE ch, ~768.00 kbps avg |Многоголосый закадровый, Superbit|
Аудио#2: Russian: 48 kHz, AC3, 3/2 (L,C,R,l,r) + LFE ch, ~448.00 kbps avg |Многоголосый закадровый, Video-BIZ|
Аудио#3: Russian: 48 kHz, AC3, 3/2 (L,C,R,l,r) + LFE ch, ~448.00 kbps avg |Одноголосый закадровый, А. Гаврилов|
Аудио#4: Russian: 48 kHz, AC3, 3/2 (L,C,R,l,r) + LFE ch, ~448.00 kbps avg |Одноголосый закадровый, В. Горчаков|
Аудио#5: Russian: 48 kHz, AC3, 3/2 (L,C,R,l,r) + LFE ch, ~448.00 kbps avg |Одноголосый закадровый, Ю. Живов|
Аудио#6: English: 48 kHz, DTS, 3/2 (L,C,R,l,r) + LFE ch, ~768.00 kbps avg
Аудио#7: Russian: 48 kHz, AC3, 2/0 (L,R), ~160.00 kbps avg |Комментарии режиссера и продюсера|
Язык субтитров: Russian, English, French
Скриншоты:


Все одноименные релизы в Клубе
Время раздачи: 24/7 (круглосуточно) (до появления первых 3-5 скачавших)Реставрация от: master-13
Код: выделить все
[align=center][color=#006699][size=20][b] Горец / Highlander [Director's Cut] (1986) BDRip [/b][/size][/color][/align][hr]
[poster=right]https://d.radikal.ru/d02/1903/6e/21d4d19dd5ba.jpg[/poster]

[b]Производство:[/b] США, Великобритания / 20th Century Fox, Highlander Productions Limited, Thorn EMI Screen Entertainment
[b]Жанр:[/b] Фэнтези, Боевик, Приключения, Триллер

[b]Режиссер:[/b] Рассел Малкэй
[b]Продюсер:[/b] Питер С. Дэвис, Уильям Н. Пэнзер, Е. С. Монелл
[b]Актеры:[/b] Кристофер Ламберт, Роксанна Харт, Клэнси Браун, Шон Коннери, Бети Эдни, Алан Норт, Шила Гиш, Джон Полито, Хью Куарши, Кристофер Малкольм

[b]Описание:[/b]
Коннор Маклауд — шотландец, который в 1536 году был сражен в битве, но мистическим образом воскрес, и родной клан изгнал его. Учителем Маклауда стал испанский дворянин, объяснивший, что он принадлежит к бессмертной расе воинов, которых можно лишить жизни, лишь обезглавив мечом…

Сражение между Маклаудом и его вечным врагом Курганом, начавшееся в Шотландии XVI века, продолжается в современном Манхеттене. От исхода этой битвы зависит судьба всех смертных. [acronym="Всё это происходит под незабываемую музыку группы Queen"]Это часть дуэли, продолжающейся веками.[/acronym]

[kp]17475[/kp] [imdb]tt0091203[/imdb]
[size=11][b]Возраст:[/b] [color=#FF6000][b]16+[/b] (зрителям, достигшим 16 лет)[/color][/size]
[size=11][b]Рейтинг MPAA:[/b] [color=#FF6000][b]R[/b] (лицам до 17 лет обязательно присутствие взрослого)[/color][/size]

[b]Продолжительность:[/b] 01:56:39
[b]Качество видео:[/b] BDRip
[b]Перевод:[/b] Профессиональный (многоголосый, закадровый), Авторский (одноголосый, закадровый)
[b]Субтитры:[/b] Russian, English, French

[b]Видео:[/b] AVC/H.264, 1280x692, ~7409 Кбит/сек
[b]Аудио#1:[/b] Russian: 48 kHz, DTS, 3/2 (L,C,R,l,r) + LFE ch, ~768.00 kbps avg |Многоголосый закадровый, Superbit|
[b]Аудио#2:[/b] Russian: 48 kHz, AC3, 3/2 (L,C,R,l,r) + LFE ch, ~448.00 kbps avg |Многоголосый закадровый, Video-BIZ|
[b]Аудио#3:[/b] Russian: 48 kHz, AC3, 3/2 (L,C,R,l,r) + LFE ch, ~448.00 kbps avg |Одноголосый закадровый, А. Гаврилов|
[b]Аудио#4:[/b] Russian: 48 kHz, AC3, 3/2 (L,C,R,l,r) + LFE ch, ~448.00 kbps avg |Одноголосый закадровый, В. Горчаков|
[b]Аудио#5:[/b] Russian: 48 kHz, AC3, 3/2 (L,C,R,l,r) + LFE ch, ~448.00 kbps avg |Одноголосый закадровый, Ю. Живов|
[b]Аудио#6:[/b] English: 48 kHz, DTS, 3/2 (L,C,R,l,r) + LFE ch, ~768.00 kbps avg
[b]Аудио#7:[/b] Russian: 48 kHz, AC3, 2/0 (L,R), ~160.00 kbps avg |Комментарии режиссера и продюсера|
[b]Язык субтитров:[/b] Russian, English, French

[spoiler=Mediainfo:][pre]
Общее
Уникальный идентификатор                 : 175728436214810870688814695941684039205 (0x843410D43F70E870ACEF610746878E25)
Полное имя                               : E:\NNM-CLUB\Highlander.DC.1986.720p.BluRay.6xRus.Eng.HDCLUB.mkv
Формат                                   : Matroska
Версия формата                           : Version 2
Размер файла                             : 8,86 Гбайт
Продолжительность                        : 1 ч. 56 м.
Общий поток                              : 10,9 Мбит/сек
Название фильма                          : Highlander (1986) - Release for HDCLUB
Дата кодирования                         : UTC 2009-06-29 19:26:54
Программа кодирования                    : mkvmerge v2.9.0 ('Moanin'') built on May 22 2009 17:46:31
Библиотека кодирования                   : libebml v0.7.7 + libmatroska v0.8.1

Видео
Идентификатор                            : 1
Формат                                   : AVC
Формат/Информация                        : Advanced Video Codec
Профиль формата                          : High@L4.1
Настройки формата                        : CABAC / 8 Ref Frames
Параметр CABAC формата                   : Да
Параметр RefFrames формата               : 8 кадров
Идентификатор кодека                     : V_MPEG4/ISO/AVC
Продолжительность                        : 1 ч. 56 м.
Битрейт                                  : 7409 Кбит/сек
Ширина                                   : 1280 пикселей
Высота                                   : 692 пикселя
Соотношение сторон                       : 1,85:1
Режим частоты кадров                     : Постоянный
Частота кадров                           : 24,000 кадра/сек
Цветовое пространство                    : YUV
Субдискретизация насыщенности            : 4:2:0
Битовая глубина                          : 8 бит
Тип развёртки                            : Прогрессивная
Бит/(Пиксели*Кадры)                      : 0.349
Размер потока                            : 5,86 Гбайт (66%)
Заголовок                                : Release for HDCLUB
Библиотека кодирования                   : x264 core 67 r1173M f6d3166
Настройки программы                      : cabac=1 / ref=8 / deblock=1:-3:-3 / analyse=0x3:0x113 / me=umh / subme=9 / psy_rd=1.0:0.0 / mixed_ref=1 / me_range=24 / chroma_me=1 / trellis=2 / 8x8dct=1 / cqm=0 / deadzone=21,11 / chroma_qp_offset=-2 / threads=12 / nr=0 / decimate=0 / mbaff=0 / bframes=3 / b_pyramid=0 / b_adapt=2 / b_bias=0 / direct=3 / wpredb=1 / keyint=250 / keyint_min=25 / scenecut=40 / rc=2pass / bitrate=7409 / ratetol=1.0 / qcomp=0.60 / qpmin=10 / qpmax=51 / qpstep=4 / cplxblur=20.0 / qblur=0.5 / vbv_maxrate=50000 / vbv_bufsize=50000 / ip_ratio=1.40 / pb_ratio=1.30 / aq=1:0.80
Язык                                     : English
Default                                  : Да
Forced                                   : Нет

Аудио #1
Идентификатор                            : 2
Формат                                   : DTS
Формат/Информация                        : Digital Theater Systems
Идентификатор кодека                     : A_DTS
Продолжительность                        : 1 ч. 56 м.
Вид битрейта                             : Постоянный
Битрейт                                  : 755 Кбит/сек
Каналы                                   : 6 каналов
Channel layout                           : C L R Ls Rs LFE
Частота                                  : 48,0 КГц
Частота кадров                           : 93,750 кадра/сек (512 SPF)
Битовая глубина                          : 24 бит
Метод сжатия                             : С потерями
Размер потока                            : 630 Мбайт (7%)
Заголовок                                : DTS 5.1 @ 768 kbps - Многоголосый закадровый, Superbit
Язык                                     : Russian
Default                                  : Да
Forced                                   : Нет

Аудио #2
Идентификатор                            : 3
Формат                                   : AC-3
Формат/Информация                        : Audio Coding 3
Коммерческое название                    : Dolby Digital
Идентификатор кодека                     : A_AC3
Продолжительность                        : 1 ч. 56 м.
Вид битрейта                             : Постоянный
Битрейт                                  : 448 Кбит/сек
Каналы                                   : 6 каналов
Channel layout                           : L R C LFE Ls Rs
Частота                                  : 48,0 КГц
Частота кадров                           : 31,250 кадров/сек (1536 SPF)
Битовая глубина                          : 16 бит
Метод сжатия                             : С потерями
Размер потока                            : 374 Мбайт (4%)
Заголовок                                : AC 5.1 @ 448 kbps - Многоголосый закадровый, Video-BIZ
Язык                                     : Russian
ServiceKind/String                       : Complete Main
Default                                  : Нет
Forced                                   : Нет

Аудио #3
Идентификатор                            : 4
Формат                                   : AC-3
Формат/Информация                        : Audio Coding 3
Коммерческое название                    : Dolby Digital
Идентификатор кодека                     : A_AC3
Продолжительность                        : 1 ч. 56 м.
Вид битрейта                             : Постоянный
Битрейт                                  : 448 Кбит/сек
Каналы                                   : 6 каналов
Channel layout                           : L R C LFE Ls Rs
Частота                                  : 48,0 КГц
Частота кадров                           : 31,250 кадров/сек (1536 SPF)
Битовая глубина                          : 16 бит
Метод сжатия                             : С потерями
Размер потока                            : 374 Мбайт (4%)
Заголовок                                : AC3 5.1 @ 448 kbps - Одноголосый закадровый, А.Гаврилов
Язык                                     : Russian
ServiceKind/String                       : Complete Main
Default                                  : Нет
Forced                                   : Нет

Аудио #4
Идентификатор                            : 5
Формат                                   : AC-3
Формат/Информация                        : Audio Coding 3
Коммерческое название                    : Dolby Digital
Идентификатор кодека                     : A_AC3
Продолжительность                        : 1 ч. 56 м.
Вид битрейта                             : Постоянный
Битрейт                                  : 448 Кбит/сек
Каналы                                   : 6 каналов
Channel layout                           : L R C LFE Ls Rs
Частота                                  : 48,0 КГц
Частота кадров                           : 31,250 кадров/сек (1536 SPF)
Битовая глубина                          : 16 бит
Метод сжатия                             : С потерями
Размер потока                            : 374 Мбайт (4%)
Заголовок                                : AC3 5.1 @ 448 kbps - Одноголосый закадровый, В.Горчаков
Язык                                     : Russian
ServiceKind/String                       : Complete Main
Default                                  : Нет
Forced                                   : Нет

Аудио #5
Идентификатор                            : 6
Формат                                   : AC-3
Формат/Информация                        : Audio Coding 3
Коммерческое название                    : Dolby Digital
Идентификатор кодека                     : A_AC3
Продолжительность                        : 1 ч. 56 м.
Вид битрейта                             : Постоянный
Битрейт                                  : 448 Кбит/сек
Каналы                                   : 6 каналов
Channel layout                           : L R C LFE Ls Rs
Частота                                  : 48,0 КГц
Частота кадров                           : 31,250 кадров/сек (1536 SPF)
Битовая глубина                          : 16 бит
Метод сжатия                             : С потерями
Размер потока                            : 374 Мбайт (4%)
Заголовок                                : AC3 5.1 @ 448 kbps - Одноголосый закадровый, Ю.Живов
Язык                                     : Russian
ServiceKind/String                       : Complete Main
Default                                  : Нет
Forced                                   : Нет

Аудио #6
Идентификатор                            : 7
Формат                                   : DTS
Формат/Информация                        : Digital Theater Systems
Идентификатор кодека                     : A_DTS
Продолжительность                        : 1 ч. 56 м.
Вид битрейта                             : Постоянный
Битрейт                                  : 755 Кбит/сек
Каналы                                   : 6 каналов
Channel layout                           : C L R Ls Rs LFE
Частота                                  : 48,0 КГц
Частота кадров                           : 93,750 кадра/сек (512 SPF)
Битовая глубина                          : 24 бит
Метод сжатия                             : С потерями
Размер потока                            : 630 Мбайт (7%)
Заголовок                                : DTS 5.1 @ 768 kbps
Язык                                     : English
Default                                  : Нет
Forced                                   : Нет

Аудио #7
Идентификатор                            : 8
Формат                                   : AC-3
Формат/Информация                        : Audio Coding 3
Коммерческое название                    : Dolby Digital
Идентификатор кодека                     : A_AC3
Продолжительность                        : 1 ч. 56 м.
Вид битрейта                             : Постоянный
Битрейт                                  : 160 Кбит/сек
Каналы                                   : 2 канала
Channel layout                           : L R
Частота                                  : 48,0 КГц
Частота кадров                           : 31,250 кадров/сек (1536 SPF)
Битовая глубина                          : 16 бит
Метод сжатия                             : С потерями
Размер потока                            : 133 Мбайт (1%)
Заголовок                                : AC3 2.0 @ 160 kbps - Комментарии режиссера и продюсера
Язык                                     : Russian
ServiceKind/String                       : Complete Main
Default                                  : Нет
Forced                                   : Нет

Текст #1
Идентификатор                            : 9
Формат                                   : UTF-8
Идентификатор кодека                     : S_TEXT/UTF8
Идентификатор кодека/Информация          : UTF-8 Plain Text
Язык                                     : Russian
Default                                  : Нет
Forced                                   : Нет

Текст #2
Идентификатор                            : 10
Формат                                   : UTF-8
Идентификатор кодека                     : S_TEXT/UTF8
Идентификатор кодека/Информация          : UTF-8 Plain Text
Язык                                     : English
Default                                  : Нет
Forced                                   : Нет

Текст #3
Идентификатор                            : 11
Формат                                   : UTF-8
Идентификатор кодека                     : S_TEXT/UTF8
Идентификатор кодека/Информация          : UTF-8 Plain Text
Язык                                     : French
Default                                  : Нет
Forced                                   : Нет
[/pre][/spoiler]
[brc][align=center][b]Скриншоты:[/b]
[url=https://c.radikal.ru/c30/1903/ef/ddd1c3caf1da.png][img]https://d.radikal.ru/d14/1903/d9/6feb94372ae4.png[/img][/url]  [url=https://b.radikal.ru/b36/1903/a9/91501490dd51.png][img]https://a.radikal.ru/a19/1903/fe/330ad240f34c.png[/img][/url]  [url=https://a.radikal.ru/a25/1903/c3/8acc88733b28.png][img]https://b.radikal.ru/b09/1903/3d/8c01ca776c25.png[/img][/url]  [url=https://d.radikal.ru/d25/1903/5c/c6ddad3b8984.png][img]https://b.radikal.ru/b14/1903/0c/8650505f1362.png[/img][/url]
[/align]
[align=center][url=http://nnm-club.me/?q=Горец+1986&w=title][size=16][color=#800000][b]Все одноименные релизы в Клубе[/b][/color][/size][/url][/align]
[size=11][b]Время раздачи:[/b] 24/7 (круглосуточно) (до появления первых 3-5 скачавших)[/size][align=right][color=transparent][b]Реставрация от: [/b]master-13[/color][/align]

_________________
Mirdred
Стаж: 6 лет 6 мес.
Сообщений: 480
Ratio: 42,069
100%
Яркий образец решающего влияния маркетинга и промоушена, сам фильм пустой но в красивой обертке
Показать сообщения:   
Начать новую тему   Ответить на тему    Торрент-трекер NNM-Club -> Классика кино и Старые фильмы до 90-х -> Зарубежная Классика (HD, UHD, UHD-LQ, 3D) Часовой пояс: GMT + 3
Страница 1 из 1