Классический форум-трекер
canvas not supported
Нас вместе: 4 079 573

t e l e p a t h - Flora Miranda's LaLaLand Fashion Show (Original Soundtrack) (2019) [FLAC|Lossless|24/48|WEB-DL] <Ambient, Dreamfunk, Fashionwave>


 
 
RSS
Начать новую тему   Ответить на тему    Торрент-трекер NNM-Club -> HD Audio и Многоканальная Музыка -> WEB-DL-Audio
Автор Сообщение
7yhy7t ®
Стаж: 5 мес. 5 дней
Сообщений: 18
Ratio: 1,865
Поблагодарили: 390
100%
t e l e p a t h - Flora Miranda's LaLaLand Fashion Show (Original Soundtrack) (2019)
Жанр: Ambient, Dreamfunk, Fashionwave
Источник: Bandcamp
Продолжительность: 00:31:34
Кодек: FLAC
Битрейт: Lossless|WEB-DL

Треклист:
01. Living on the Echoes of Yesterday (06:03)
02. Have I Seen You Before? (05:13)
03. In the Mirror of Your Eyes (02:44)
04. Birth of a Trinity (01:45)
05. Flora Miranda's LaLaLand Fashion Show (Original Soundtrack) (15:47)

foobar2000 1.4.6 / Dynamic Range Meter 1.1.1
log date: 2019-09-07 01:21:18

--------------------------------------------------------------------------------
Analyzed: t e l e p a t h / Flora Miranda's LaLaLand Fashion Show (Original Soundtrack)
--------------------------------------------------------------------------------

DR Peak RMS Duration Track
--------------------------------------------------------------------------------
DR12 -9.74 dB -24.80 dB 6:04 01-Living on the Echoes of Yesterday
DR12 -0.18 dB -13.81 dB 5:14 02-Have I Seen You Before?
DR15 -1.35 dB -19.30 dB 2:45 03-In the Mirror of Your Eyes
DR12 -2.30 dB -16.93 dB 1:45 04-Birth of a Trinity
DR13 -0.18 dB -17.12 dB 15:47 05-Flora Miranda's LaLaLand Fashion Show (Original Soundtrack)
--------------------------------------------------------------------------------

Number of tracks: 5
Official DR value: DR13

Samplerate: 48000 Hz
Channels: 2
Bits per sample: 24
Bitrate: 1716 kbps
Codec: FLAC
================================================================================

General
Complete name : D:\t e l e p a t h - Flora Miranda's LaLaLand Fashion Show (Original Soundtrack) (24Bit WEB, 2019)\01 Living on the Echoes of Yesterday.flac
Format : FLAC
Format/Info : Free Lossless Audio Codec
File size : 73.8 MiB
Duration : 6 min 3 s
Overall bit rate mode : Variable
Overall bit rate : 1 703 kb/s
Album : Flora Miranda's LaLaLand Fashion Show (Original Soundtrack)
Album/Performer : t e l e p a t h
Track name : Living on the Echoes of Yesterday
Track name/Position : 1
Performer : t e l e p a t h
Genre : Ambient, Dreamfunk, Fashionwave
Recorded date : 2019
Cover : Yes
Cover type : Cover (front)
Cover MIME : image/jpeg
Comment : Visit http://telepathtelepath.bandcamp.com

Audio
Format : FLAC
Format/Info : Free Lossless Audio Codec
Duration : 6 min 3 s
Bit rate mode : Variable
Bit rate : 1 697 kb/s
Channel(s) : 2 channels
Channel layout : L R
Sampling rate : 48.0 kHz
Bit depth : 24 bits
Compression mode : Lossless
Stream size : 73.6 MiB (100%)
Writing library : libFLAC 1.3.0 (UTC 2013-05-26)

General
Complete name : D:\t e l e p a t h - Flora Miranda's LaLaLand Fashion Show (Original Soundtrack) (24Bit WEB, 2019)\02 Have I Seen You Before-.flac
Format : FLAC
Format/Info : Free Lossless Audio Codec
File size : 64.2 MiB
Duration : 5 min 13 s
Overall bit rate mode : Variable
Overall bit rate : 1 718 kb/s
Album : Flora Miranda's LaLaLand Fashion Show (Original Soundtrack)
Album/Performer : t e l e p a t h
Track name : Have I Seen You Before?
Track name/Position : 2
Performer : t e l e p a t h
Genre : Ambient, Dreamfunk, Fashionwave
Recorded date : 2019
Cover : Yes
Cover type : Cover (front)
Cover MIME : image/jpeg
Comment : Visit http://telepathtelepath.bandcamp.com

Audio
Format : FLAC
Format/Info : Free Lossless Audio Codec
Duration : 5 min 13 s
Bit rate mode : Variable
Bit rate : 1 711 kb/s
Channel(s) : 2 channels
Channel layout : L R
Sampling rate : 48.0 kHz
Bit depth : 24 bits
Compression mode : Lossless
Stream size : 64.0 MiB (100%)
Writing library : libFLAC 1.3.0 (UTC 2013-05-26)

General
Complete name : D:\t e l e p a t h - Flora Miranda's LaLaLand Fashion Show (Original Soundtrack) (24Bit WEB, 2019)\03 In the Mirror of Your Eyes.flac
Format : FLAC
Format/Info : Free Lossless Audio Codec
File size : 35.6 MiB
Duration : 2 min 44 s
Overall bit rate mode : Variable
Overall bit rate : 1 817 kb/s
Album : Flora Miranda's LaLaLand Fashion Show (Original Soundtrack)
Album/Performer : t e l e p a t h
Track name : In the Mirror of Your Eyes
Track name/Position : 3
Performer : t e l e p a t h
Genre : Ambient, Dreamfunk, Fashionwave
Recorded date : 2019
Cover : Yes
Cover type : Cover (front)
Cover MIME : image/jpeg
Comment : Visit http://telepathtelepath.bandcamp.com

Audio
Format : FLAC
Format/Info : Free Lossless Audio Codec
Duration : 2 min 44 s
Bit rate mode : Variable
Bit rate : 1 804 kb/s
Channel(s) : 2 channels
Channel layout : L R
Sampling rate : 48.0 kHz
Bit depth : 24 bits
Compression mode : Lossless
Stream size : 35.4 MiB (99%)
Writing library : libFLAC 1.3.0 (UTC 2013-05-26)

General
Complete name : D:\t e l e p a t h - Flora Miranda's LaLaLand Fashion Show (Original Soundtrack) (24Bit WEB, 2019)\04 Birth of a Trinity.flac
Format : FLAC
Format/Info : Free Lossless Audio Codec
File size : 21.1 MiB
Duration : 1 min 45 s
Overall bit rate mode : Variable
Overall bit rate : 1 684 kb/s
Album : Flora Miranda's LaLaLand Fashion Show (Original Soundtrack)
Album/Performer : t e l e p a t h
Track name : Birth of a Trinity
Track name/Position : 4
Performer : t e l e p a t h
Genre : Ambient, Dreamfunk, Fashionwave
Recorded date : 2019
Cover : Yes
Cover type : Cover (front)
Cover MIME : image/jpeg
Comment : Visit http://telepathtelepath.bandcamp.com

Audio
Format : FLAC
Format/Info : Free Lossless Audio Codec
Duration : 1 min 45 s
Bit rate mode : Variable
Bit rate : 1 663 kb/s
Channel(s) : 2 channels
Channel layout : L R
Sampling rate : 48.0 kHz
Bit depth : 24 bits
Compression mode : Lossless
Stream size : 20.9 MiB (99%)
Writing library : libFLAC 1.3.0 (UTC 2013-05-26)

General
Complete name : D:\t e l e p a t h - Flora Miranda's LaLaLand Fashion Show (Original Soundtrack) (24Bit WEB, 2019)\05 Flora Miranda's LaLaLand Fashion Show (Original Soundtrack).flac
Format : FLAC
Format/Info : Free Lossless Audio Codec
File size : 194 MiB
Duration : 15 min 47 s
Overall bit rate mode : Variable
Overall bit rate : 1 719 kb/s
Album : Flora Miranda's LaLaLand Fashion Show (Original Soundtrack)
Album/Performer : t e l e p a t h
Track name : Flora Miranda's LaLaLand Fashion Show (Original Soundtrack)
Track name/Position : 5
Performer : t e l e p a t h
Genre : Ambient, Dreamfunk, Fashionwave
Recorded date : 2019
Cover : Yes
Cover type : Cover (front)
Cover MIME : image/jpeg
Comment : Visit http://telepathtelepath.bandcamp.com

Audio
Format : FLAC
Format/Info : Free Lossless Audio Codec
Duration : 15 min 47 s
Bit rate mode : Variable
Bit rate : 1 716 kb/s
Channel(s) : 2 channels
Channel layout : L R
Sampling rate : 48.0 kHz
Bit depth : 24 bits
Compression mode : Lossless
Stream size : 194 MiB (100%)
Writing library : libFLAC 1.3.0 (UTC 2013-05-26)
YouTube

Время раздачи: 24/7 (Круглосуточно) (до появления первых 3-5 скачавших)
[NNMClub.to]_t e l e p a t h - Flora Miranda's LaLaLand Fashion Show (Original Soundtrack) (24Bit WEB, 2019).torrent
 Торрент:   Зарегистрирован
 
Зарегистрируйтесь и скачайте торрент!
16,3 KB

Примагнититься
 Зарегистрирован:   07 Сен 2019 02:02:44
 Размер:   394 MB  (
 Рейтинг:    (Голосов: 3)
 Поблагодарили:   29
 Проверка:   Оформление проверено модератором 08 Сен 2019 08:29:16
Как cкачать  ·  Как раздать  ·  Правильно оформить  ·  Поднять ратио!  
Показать сообщения:   
Начать новую тему   Ответить на тему    Торрент-трекер NNM-Club -> HD Audio и Многоканальная Музыка -> WEB-DL-Audio Часовой пояс: GMT + 3
Страница 1 из 1