Классический форум-трекер
canvas not supported
Нас вместе: 4 079 559

Sangam & Kid Smpl - Dwelling Descender (2019) Display [FLAC|Lossless 16/24Bit|WEB-DL] <Ambient, Experimental, Techno>


 
 
RSS
Начать новую тему   Ответить на тему    Торрент-трекер NNM-Club -> HD Audio и Многоканальная Музыка -> WEB-DL-Audio
Автор Сообщение
7yhy7t ®
Стаж: 5 мес. 5 дней
Сообщений: 18
Ratio: 1,865
Поблагодарили: 390
100%
Sangam & Kid Smpl - Dwelling Descender (2019)
Жанр: Ambient, Experimental, Techno
Источник: Bandcamp
Продолжительность: 00:49:30
Кодек: FLAC
Битрейт: Lossless (16-24Bit)

Треклист:
01. Sangam & Kid Smpl - Dwelling Descender (11:13)
02. Kid Smpl - Radiant Scrape (10:53)
03. Sangam - Wasting Away (14:27)
04. Sangam & Kid Smpl - Desolate Image (12:56)

General
Complete name : D:\Sangam & Kid Smpl - Dwelling Descender (16-24Bit WEB) (2019)\01 Dwelling Descender.flac
Format : FLAC
Format/Info : Free Lossless Audio Codec
File size : 124 MiB
Duration : 11 min 13 s
Overall bit rate mode : Variable
Overall bit rate : 1 541 kb/s
Album : Dwelling Descender
Album/Performer : Sangam & Kid Smpl
Track name : Dwelling Descender
Track name/Position : 1
Performer : Sangam & Kid Smpl
Genre : Ambient, Experimental, Techno
Recorded date : 2019
Cover : Yes
Cover type : Cover (front)
Cover MIME : image/jpeg
Comment : Visit http://displayseries.bandcamp.com

Audio
Format : FLAC
Format/Info : Free Lossless Audio Codec
Duration : 11 min 13 s
Bit rate mode : Variable
Bit rate : 1 541 kb/s
Channel(s) : 2 channels
Channel layout : L R
Sampling rate : 44.1 kHz
Bit depth : 24 bits
Compression mode : Lossless
Stream size : 124 MiB (100%)
Writing library : libFLAC 1.3.0 (UTC 2013-05-26)

General
Complete name : D:\Sangam & Kid Smpl - Dwelling Descender (16-24Bit WEB) (2019)\02 Radiant Scrape.flac
Format : FLAC
Format/Info : Free Lossless Audio Codec
File size : 112 MiB
Duration : 10 min 53 s
Overall bit rate mode : Variable
Overall bit rate : 1 441 kb/s
Album : Dwelling Descender
Album/Performer : Sangam & Kid Smpl
Track name : Radiant Scrape
Track name/Position : 2
Performer : Kid Smpl
Genre : Ambient, Experimental, Techno
Recorded date : 2019
Cover : Yes
Cover type : Cover (front)
Cover MIME : image/jpeg
Comment : Visit http://displayseries.bandcamp.com

Audio
Format : FLAC
Format/Info : Free Lossless Audio Codec
Duration : 10 min 53 s
Bit rate mode : Variable
Bit rate : 1 440 kb/s
Channel(s) : 2 channels
Channel layout : L R
Sampling rate : 44.1 kHz
Bit depth : 24 bits
Compression mode : Lossless
Stream size : 112 MiB (100%)
Writing library : libFLAC 1.3.0 (UTC 2013-05-26)

General
Complete name : D:\Sangam & Kid Smpl - Dwelling Descender (16-24Bit WEB) (2019)\03 Wasting Away.flac
Format : FLAC
Format/Info : Free Lossless Audio Codec
File size : 72.0 MiB
Duration : 14 min 27 s
Overall bit rate mode : Variable
Overall bit rate : 696 kb/s
Album : Dwelling Descender
Album/Performer : Sangam & Kid Smpl
Track name : Wasting Away
Track name/Position : 3
Performer : Sangam
Genre : Ambient, Experimental, Techno
Recorded date : 2019
Cover : Yes
Cover type : Cover (front)
Cover MIME : image/jpeg
Comment : Visit http://displayseries.bandcamp.com

Audio
Format : FLAC
Format/Info : Free Lossless Audio Codec
Duration : 14 min 27 s
Bit rate mode : Variable
Bit rate : 696 kb/s
Channel(s) : 2 channels
Channel layout : L R
Sampling rate : 44.1 kHz
Bit depth : 16 bits
Compression mode : Lossless
Stream size : 71.9 MiB (100%)
Writing library : libFLAC 1.3.0 (UTC 2013-05-26)

General
Complete name : D:\Sangam & Kid Smpl - Dwelling Descender (16-24Bit WEB) (2019)\04 Desolate Image.flac
Format : FLAC
Format/Info : Free Lossless Audio Codec
File size : 142 MiB
Duration : 12 min 56 s
Overall bit rate mode : Variable
Overall bit rate : 1 536 kb/s
Album : Dwelling Descender
Album/Performer : Sangam & Kid Smpl
Track name : Desolate Image
Track name/Position : 4
Performer : Sangam & Kid Smpl
Genre : Ambient, Experimental, Techno
Recorded date : 2019
Cover : Yes
Cover type : Cover (front)
Cover MIME : image/jpeg
Comment : Visit http://displayseries.bandcamp.com

Audio
Format : FLAC
Format/Info : Free Lossless Audio Codec
Duration : 12 min 56 s
Bit rate mode : Variable
Bit rate : 1 535 kb/s
Channel(s) : 2 channels
Channel layout : L R
Sampling rate : 44.1 kHz
Bit depth : 24 bits
Compression mode : Lossless
Stream size : 142 MiB (100%)
Writing library : libFLAC 1.3.0 (UTC 2013-05-26)
Время раздачи: 24/7 (круглосуточно) (до появления первых 3-5 скачавших)
[NNMClub.to]_Sangam & Kid Smpl - Dwelling Descender (16-24Bit WEB) (2019).torrent
 Торрент:   Зарегистрирован
 
Зарегистрируйтесь и скачайте торрент!
18,5 KB

Примагнититься
 Зарегистрирован:   07 Сен 2019 07:23:17
 Размер:   457 MB  (
 Рейтинг:    (Голосов: 3)
 Поблагодарили:   21
 Проверка:   Оформление проверено модератором 07 Сен 2019 22:16:30
Как cкачать  ·  Как раздать  ·  Правильно оформить  ·  Поднять ратио!  
Skrux
Стаж: 5 лет 1 мес.
Сообщений: 30
Ratio: 0,102
100%
russia.gif
Kid Smpl ОТЛИЧНЫЙ ИСПОЛНИТЕЛЬ НО ВОТ ДИСКОГРАФИИ ЕГО НЕТУ В ИНТЕРНЕТЕ. А ЖАЛЬ..

_________________
челом бьет
Показать сообщения:   
Начать новую тему   Ответить на тему    Торрент-трекер NNM-Club -> HD Audio и Многоканальная Музыка -> WEB-DL-Audio Часовой пояс: GMT + 3
Страница 1 из 1