Классический форум-трекер
canvas not supported
Нас вместе: 4 079 573

Бойся, враг, девятого сына (1984) DVDRip


 
 
RSS
Начать новую тему   Ответить на тему    Торрент-трекер NNM-Club -> Видео -> Отечественные Фильмы для детей
Автор Сообщение
almikl ®
Куратор Детского.
Модератор Видео.
RG Всё лучшее - детям!
Uploader 500+
 
Стаж: 12 лет 4 мес.
Сообщений: 4759
Ratio: 340,823
Поблагодарили: 107549
100%
Откуда: Дааалекое Подмосковье
russia.gif
Бойся, враг, девятого сына (1984) DVDRip
Производство: СССР
Жанр: Семейный, сказка

Режиссер: Виктор Пусурманов, Виктор Чугунов
Актеры: Кайрат Нукрадилов, Гульжан Аспетова, Нурмухан Жантурин, Лейла Джумалиева, Жанна (Жаннат) Куанышева, Булат Аюханов, Димаш (Динмухамет) Ахимов, Ануарбек Молдабеков, Амина Умурзакова, Нуржуман Ихтымбаев, Болат Абдилманов, Марат Азимбаев, Балтыбай Сейтмамутов, Дарига Тлендиева

Описание : По мотивам казахского фольклора. Добрая волшебница Аккемпир предрекает злому колдуну Тасболу скорую погибель от руки одного из сыновей табунщика Ержана. Колдун приказывает слугам доставить юношей в свое царство. Но храбрый табунщик не желает отдавать детей. В отместку его похищают и превращают в каменного истукана. Восемь сыновей табунщика отправляются на поиски отца. Обманом завлекают их в пещеру, опаивают колдовским зельем, и они становятся преданными воинами злого колдуна. Между тем не по дням, а по часам подрастает девятый сын табунщика - Еркенже. За одну ночь превращается он из младенца в юношу и едет искать отца и братьев. Доброта, смелость и отвага помогут юному Еркенже преодолеть все препятствия, которые воздвигнет на его пути злой колдун.


Возраст: 12+ (зрителям, достигшим 12 лет)

Релиз от: almikl ® &

Продолжительность: 01:05:27
Качество видео: DVDRip

Видео: XviD, 720x544, ~2700 Kbps
Аудио: AC3, 2 ch, 192 Кбит/сек

Общее
Полное имя : Бойся, враг, девятого сына.1984.DVDRip.almikl.nnmclub.avi
Формат : AVI
Формат/Информация : Audio Video Interleave
Размер файла : 1,37 Гбайт
Продолжительность : 1 ч. 5 м.
Общий поток : 2988 Кбит/сек
Программа кодирования : VirtualDubMod 1.5.4.1 (build 2178/release)
Библиотека кодирования : VirtualDubMod build 2178/release

Видео
Идентификатор : 0
Формат : MPEG-4 Visual
Профиль формата : Advanced Simple@L5
Настройки формата : BVOP1 / Custom Matrix
Параметр BVOP формата : 1
Параметр QPel формата : Нет
Параметр GMC формата : Без точки перехода
Параметр матрицы формата : Выборочная
Идентификатор кодека : XVID
Идентификатор кодека/Подсказка : XviD
Продолжительность : 1 ч. 5 м.
Битрейт : 2790 Кбит/сек
Ширина : 720 пикселей
Высота : 544 пикселя
Соотношение сторон : 4:3
Частота кадров : 25,000 кадров/сек
Цветовое пространство : YUV
Субдискретизация насыщенности : 4:2:0
Битовая глубина : 8 бит
Тип развёртки : Прогрессивная
Метод сжатия : С потерями
Бит/(Пиксели*Кадры) : 0.285
Размер потока : 1,28 Гбайт (93%)
Библиотека кодирования : XviD 73

Аудио
Идентификатор : 1
Формат : AC-3
Формат/Информация : Audio Coding 3
Коммерческое название : Dolby Digital
Идентификатор кодека : 2000
Продолжительность : 1 ч. 4 м.
Вид битрейта : Постоянный
Битрейт : 192 Кбит/сек
Каналы : 2 канала
ChannelLayout : L R
Частота : 48,0 КГц
Частота кадров : 31,250 кадров/сек (1536 SPF)
Битовая глубина : 16 бит
Метод сжатия : С потерями
Размер потока : 89,1 Мбайт (6%)
Выравнивание : Разделение по промежуткам
Продолжительность промежутка : 97 мс. (2,42 видеокадра)
Время предзагрузки промежутка : 96 мс.
ServiceKind/String : Complete Main
Скриншоты:

Все одноименные релизы в Клубе

Время раздачи: 24/7 (до появления первых 3-5 скачавших)
Boysya, vrag, devyatogo syina.1984.DVDRip.almikl.nnmclub.avi.torrent
 Торрент: Платиновая раздача  Зарегистрирован
 
Скачать


Примагнититься
 Зарегистрирован:   09 Сен 2019 16:55:16
 Размер:   1,37 GB  (
 Рейтинг:    (Голосов: 5)
 Поблагодарили:   32
 Проверка:   Оформление проверено модератором 09 Сен 2019 17:09:52
Как cкачать  ·  Как раздать  ·  Правильно оформить  ·  Поднять ратио!  
Показать сообщения:   
Начать новую тему   Ответить на тему    Торрент-трекер NNM-Club -> Видео -> Отечественные Фильмы для детей Часовой пояс: GMT + 3
Страница 1 из 1