Классический форум-трекер
canvas not supported
Нас вместе: 4 079 565

Бойся, враг, девятого сына (1984) DVDRip [H.264]


 
 
RSS
Начать новую тему   Ответить на тему    Торрент-трекер NNM-Club -> Видео -> Отечественные Фильмы для детей
Автор Сообщение
almikl ®
Куратор Детского.
Модератор Видео.
RG Всё лучшее - детям!
Uploader 500+
 
Стаж: 12 лет 4 мес.
Сообщений: 4759
Ratio: 340,798
Поблагодарили: 107551
100%
Откуда: Дааалекое Подмосковье
russia.gif
Бойся, враг, девятого сына (1984) DVDRip
Производство: СССР
Жанр: Семейный, сказка

Режиссер: Виктор Пусурманов, Виктор Чугунов
Актеры: Кайрат Нукрадилов, Гульжан Аспетова, Нурмухан Жантурин, Лейла Джумалиева, Жанна (Жаннат) Куанышева, Булат Аюханов, Димаш (Динмухамет) Ахимов, Ануарбек Молдабеков, Амина Умурзакова, Нуржуман Ихтымбаев, Болат Абдилманов, Марат Азимбаев, Балтыбай Сейтмамутов, Дарига Тлендиева

Описание : По мотивам казахского фольклора. Добрая волшебница Аккемпир предрекает злому колдуну Тасболу скорую погибель от руки одного из сыновей табунщика Ержана. Колдун приказывает слугам доставить юношей в свое царство. Но храбрый табунщик не желает отдавать детей. В отместку его похищают и превращают в каменного истукана. Восемь сыновей табунщика отправляются на поиски отца. Обманом завлекают их в пещеру, опаивают колдовским зельем, и они становятся преданными воинами злого колдуна. Между тем не по дням, а по часам подрастает девятый сын табунщика - Еркенже. За одну ночь превращается он из младенца в юношу и едет искать отца и братьев. Доброта, смелость и отвага помогут юному Еркенже преодолеть все препятствия, которые воздвигнет на его пути злой колдун.


Возраст: 12+ (зрителям, достигшим 12 лет)

Релиз от: almikl ® &

Продолжительность: 01:05:27
Качество видео: DVDRip

Видео: AVC/H.264, 712x520, ~2300 Kbps
Аудио: AC3, 2 ch, 192 Кбит/сек

Общее
Уникальный идентификатор : 37142080475338627419892369242536150516 (0x1BF14DF39BEC748428C35195626605F4)
Полное имя : Бойся, враг, девятого сына.1984.DVDRip.h264.almikl.nnmclub.mkv
Формат : Matroska
Версия формата : Version 2
Размер файла : 1,14 Гбайт
Продолжительность : 1 ч. 5 м.
Общий поток : 2501 Кбит/сек
Дата кодирования : UTC 2019-09-09 15:47:27
Программа кодирования : mkvmerge v36.0.0 ('Is That Jazz?') 64-bit
Библиотека кодирования : libebml v1.3.9 + libmatroska v1.5.2

Видео
Идентификатор : 1
Формат : AVC
Формат/Информация : Advanced Video Codec
Профиль формата : High@L4.1
Настройки формата : CABAC / 7 Ref Frames
Параметр CABAC формата : Да
Параметр RefFrames формата : 7 кадров
Идентификатор кодека : V_MPEG4/ISO/AVC
Продолжительность : 1 ч. 5 м.
Битрейт : 2309 Кбит/сек
Ширина : 712 пикселей
Высота : 520 пикселей
Соотношение сторон : 4:3
Режим частоты кадров : Постоянный
Частота кадров : 25,000 кадров/сек
Цветовое пространство : YUV
Субдискретизация насыщенности : 4:2:0
Битовая глубина : 8 бит
Тип развёртки : Прогрессивная
Бит/(Пиксели*Кадры) : 0.249
Размер потока : 1,06 Гбайт (92%)
Библиотека кодирования : x264 core 157 r2969 d4099dd
Настройки программы : cabac=1 / ref=7 / deblock=1:-2:-2 / analyse=0x3:0x133 / me=umh / subme=10 / psy=1 / psy_rd=1.00:0.25 / mixed_ref=1 / me_range=24 / chroma_me=1 / trellis=2 / 8x8dct=1 / cqm=0 / deadzone=6,6 / fast_pskip=0 / chroma_qp_offset=-4 / threads=6 / lookahead_threads=1 / sliced_threads=0 / nr=0 / decimate=0 / interlaced=0 / bluray_compat=0 / constrained_intra=0 / bframes=9 / b_pyramid=2 / b_adapt=2 / b_bias=0 / direct=1 / weightb=1 / open_gop=0 / weightp=2 / keyint=240 / keyint_min=23 / scenecut=40 / intra_refresh=0 / rc_lookahead=40 / rc=2pass / mbtree=1 / bitrate=2309 / ratetol=1.0 / qcomp=0.60 / qpmin=0 / qpmax=69 / qpstep=4 / cplxblur=20.0 / qblur=0.5 / vbv_maxrate=50000 / vbv_bufsize=62500 / nal_hrd=none / filler=0 / ip_ratio=1.10 / aq=3:0.80
Default : Да
Forced : Нет

Аудио
Идентификатор : 2
Формат : AC-3
Формат/Информация : Audio Coding 3
Коммерческое название : Dolby Digital
Идентификатор кодека : A_AC3
Продолжительность : 1 ч. 4 м.
Вид битрейта : Постоянный
Битрейт : 192 Кбит/сек
Каналы : 2 канала
ChannelLayout : L R
Частота : 48,0 КГц
Частота кадров : 31,250 кадров/сек (1536 SPF)
Битовая глубина : 16 бит
Метод сжатия : С потерями
Размер потока : 89,1 Мбайт (8%)
Язык : new
ServiceKind/String : Complete Main
Default : Да
Forced : Нет
Скриншоты:

Все одноименные релизы в Клубе

Время раздачи: 24/7 (до появления первых 3-5 скачавших)
Boysya, vrag, devyatogo syina.1984.DVDRip.h264.almikl.nnmclub.mkv.torrent
 Торрент: Платиновая раздача  Зарегистрирован
 
Скачать


Примагнититься
 Зарегистрирован:   11 Сен 2019 12:36:31
 Размер:   1,14 GB  (
 Рейтинг:    (Голосов: 4)
 Поблагодарили:   28
 Проверка:   Оформление проверено модератором 11 Сен 2019 12:37:45
Как cкачать  ·  Как раздать  ·  Правильно оформить  ·  Поднять ратио!  
Показать сообщения:   
Начать новую тему   Ответить на тему    Торрент-трекер NNM-Club -> Видео -> Отечественные Фильмы для детей Часовой пояс: GMT + 3
Страница 1 из 1