Классический форум-трекер
canvas not supported
Нас вместе: 4 079 574

Бойся, враг, девятого сына (1984) DVDRip


 
 
RSS
Начать новую тему   Ответить на тему    Торрент-трекер NNM-Club -> Видео -> Отечественные Фильмы для детей
Автор Сообщение
almikl ®
Куратор Детского.
Модератор Видео.
RG Всё лучшее - детям!
Uploader 500+
 
Стаж: 12 лет 4 мес.
Сообщений: 4759
Ratio: 340,83
Поблагодарили: 107549
100%
Откуда: Дааалекое Подмосковье
russia.gif
Бойся, враг, девятого сына (1984) DVDRip
Производство: СССР
Жанр: Семейный, сказка

Режиссер: Виктор Пусурманов, Виктор Чугунов
Актеры: Кайрат Нукрадилов, Гульжан Аспетова, Нурмухан Жантурин, Лейла Джумалиева, Жанна (Жаннат) Куанышева, Булат Аюханов, Димаш (Динмухамет) Ахимов, Ануарбек Молдабеков, Амина Умурзакова, Нуржуман Ихтымбаев, Болат Абдилманов, Марат Азимбаев, Балтыбай Сейтмамутов, Дарига Тлендиева

Описание : По мотивам казахского фольклора. Добрая волшебница Аккемпир предрекает злому колдуну Тасболу скорую погибель от руки одного из сыновей табунщика Ержана. Колдун приказывает слугам доставить юношей в свое царство. Но храбрый табунщик не желает отдавать детей. В отместку его похищают и превращают в каменного истукана. Восемь сыновей табунщика отправляются на поиски отца. Обманом завлекают их в пещеру, опаивают колдовским зельем, и они становятся преданными воинами злого колдуна. Между тем не по дням, а по часам подрастает девятый сын табунщика - Еркенже. За одну ночь превращается он из младенца в юношу и едет искать отца и братьев. Доброта, смелость и отвага помогут юному Еркенже преодолеть все препятствия, которые воздвигнет на его пути злой колдун.


Возраст: 12+ (зрителям, достигшим 12 лет)

Релиз от: almikl ® &

Продолжительность: 01:05:27
Качество видео: DVDRip

Видео: XviD, 720x544, ~1300 Kbps
Аудио: MP3, 2 ch, 128 Кбит/сек

Общее
Полное имя : Бойся, враг, девятого сына.1984.DVDRip.700.almikl.nnmclub.avi
Формат : AVI
Формат/Информация : Audio Video Interleave
Размер файла : 699 Мбайт
Продолжительность : 1 ч. 5 м.
Режим общего битрейта : Переменный
Общий поток : 1493 Кбит/сек
Программа кодирования : VirtualDubMod 1.5.4.1 (build 2178/release)
Библиотека кодирования : VirtualDubMod build 2178/release

Видео
Идентификатор : 0
Формат : MPEG-4 Visual
Профиль формата : Advanced Simple@L5
Настройки формата : BVOP1 / Custom Matrix
Параметр BVOP формата : 1
Параметр QPel формата : Нет
Параметр GMC формата : Без точки перехода
Параметр матрицы формата : Выборочная
Идентификатор кодека : XVID
Идентификатор кодека/Подсказка : XviD
Продолжительность : 1 ч. 5 м.
Битрейт : 1380 Кбит/сек
Ширина : 720 пикселей
Высота : 544 пикселя
Соотношение сторон : 4:3
Частота кадров : 25,000 кадров/сек
Цветовое пространство : YUV
Субдискретизация насыщенности : 4:2:0
Битовая глубина : 8 бит
Тип развёртки : Прогрессивная
Метод сжатия : С потерями
Бит/(Пиксели*Кадры) : 0.141
Размер потока : 646 Мбайт (92%)
Библиотека кодирования : XviD 73

Аудио
Идентификатор : 1
Формат : MPEG Audio
Версия формата : Version 1
Профиль формата : Layer 3
Настройки формата : Joint stereo / MS Stereo
Идентификатор кодека : 55
Идентификатор кодека/Подсказка : MP3
Продолжительность : 1 ч. 4 м.
Вид битрейта : Переменный
Битрейт : 101 Кбит/сек
Номинальный битрейт : 128 Кбит/сек
Каналы : 2 канала
Частота : 48,0 КГц
Частота кадров : 41,667 кадра/сек (1152 SPF)
Метод сжатия : С потерями
Размер потока : 46,9 Мбайт (7%)
Выравнивание : Соединение по промежуткам
Продолжительность промежутка : 24 мс. (0,61 видеокадр)
Время предзагрузки промежутка : 463 мс.
Библиотека кодирования : LAME3.98r
Настройки программы : -m j -V 4 -q 2 -lowpass 17 --abr 128
Скриншоты:

Все одноименные релизы в Клубе

Время раздачи: 24/7 (до появления первых 3-5 скачавших)
Boysya, vrag, devyatogo syina.1984.DVDRip.700.almikl.nnmclub.avi.torrent
 Торрент: Платиновая раздача  Зарегистрирован
 
Скачать


Примагнититься
 Зарегистрирован:   11 Сен 2019 12:45:45
 Размер:   699 MB  (
 Рейтинг:    (Голосов: 3)
 Поблагодарили:   25
 Проверка:   Оформление проверено модератором 11 Сен 2019 12:46:13
Как cкачать  ·  Как раздать  ·  Правильно оформить  ·  Поднять ратио!  
Показать сообщения:   
Начать новую тему   Ответить на тему    Торрент-трекер NNM-Club -> Видео -> Отечественные Фильмы для детей Часовой пояс: GMT + 3
Страница 1 из 1