Классический форум-трекер
canvas not supported
Нас вместе: 4 078 972

Первая передача на НТВ. Автомобильная передача (15.09.2019) SATRip


 
 
RSS
Начать новую тему   Ответить на тему    Торрент-трекер NNM-Club -> Документалистика и Телепередачи -> За рулем
Автор Сообщение
Катюша ®
Мне бы в небо!
Стаж: 7 лет 6 мес.
Сообщений: 355
Ratio: 182,517
Поблагодарили: 32620
100%
witch.png
Первая передача на НТВ. Автомобильная передача (15.09.2019) SATRip

Телекомпания: НТВ
Жанр: Автопередача

Ведущий: Алексей Куличков

Описание:
Автомобили, автомобили
Буквально все заполонили
Там где вековая лежала пыль
Свой след оставил автомобиль...

«Первая передача» — это познавательный проект про автомобилистов и для автомобилистов — для тех, что хочет из простого автолюбителя стать автопрофессионалом!

Релиз от: -=FOX=-
Продолжительность: 00:28:07
Качество видео: SATRip

Видео: MPEG4, XviD, 720x448 ~1 800 Kbps
Аудио: MP3, 48.0 KHz, 2 ch, 128 Kbps

General
Complete name : Первая передача.(2019.09.15).SATRip.avi
Format : AVI
Format/Info : Audio Video Interleave
File size : 389 MiB
Duration : 28 min 7 s
Overall bit rate : 1 935 kb/s
Writing application : VirtualDubMod 1.5.10.3 | www.virtualdub-fr.org || (build 2550/release)
Writing library : VirtualDubMod build 2550/release

Video
ID : 0
Format : MPEG-4 Visual
Format profile : Advanced Simple@L5
Format settings : BVOP2
Format settings, BVOP : 2
Format settings, QPel : No
Format settings, GMC : No warppoints
Format settings, Matrix : Default (H.263)
Codec ID : XVID
Codec ID/Hint : XviD
Duration : 28 min 7 s
Bit rate : 1 797 kb/s
Width : 720 pixels
Height : 448 pixels
Display aspect ratio : 16:10
Frame rate : 25.000 FPS
Color space : YUV
Chroma subsampling : 4:2:0
Bit depth : 8 bits
Scan type : Progressive
Compression mode : Lossy
Bits/(Pixel*Frame) : 0.223
Stream size : 361 MiB (93%)
Writing library : XviD 1.2.1 (UTC 2008-12-04)

Audio
ID : 1
Format : MPEG Audio
Format version : Version 1
Format profile : Layer 3
Codec ID : 55
Codec ID/Hint : MP3
Duration : 28 min 7 s
Bit rate mode : Constant
Bit rate : 128 kb/s
Channel(s) : 2 channels
Sampling rate : 48.0 kHz
Frame rate : 41.667 FPS (1152 SPF)
Compression mode : Lossy
Stream size : 25.7 MiB (7%)
Alignment : Aligned on interleaves
Interleave, duration : 40 ms (1.00 video frame)
Interleave, preload duratio : 504 ms
Writing library : LAME3.99r
Encoding settings : -m s -V 4 -q 2 -lowpass 17 -b 128

Скриншоты:


Все одноименные релизы в Клубе
Время раздачи: 24/7. До первых 5 скачавших.
[NNMClub.to]_Pervaya peredacha.(2019.09.15).SATRip.avi.torrent
 Торрент:   Зарегистрирован
 
Зарегистрируйтесь и скачайте торрент!
15,6 KB

Примагнититься
 Зарегистрирован:   15 Сен 2019 07:23:02
 Размер:   389 MB  (
 Рейтинг:   4,7 (Голосов: 12)
 Поблагодарили:   58
 Проверка:   Оформление проверено модератором 15 Сен 2019 08:01:34
Как cкачать  ·  Как раздать  ·  Правильно оформить  ·  Поднять ратио!  

_________________
С годами старые фильмы становятся все лучше, а новые - все хуже.
Загрузка...
Показать сообщения:   
Начать новую тему   Ответить на тему    Торрент-трекер NNM-Club -> Документалистика и Телепередачи -> За рулем Часовой пояс: GMT + 3
Страница 1 из 1