Классический форум-трекер
canvas not supported
Нас вместе: 4 079 358

Король Лир / King Lear (2018) WEB-DL [1080p] ATV (MVO)


 
 
RSS
Начать новую тему   Ответить на тему    Торрент-трекер NNM-Club -> Аудио и Видео -> Зарубежное видео HD для устройств Apple
Автор Сообщение
Весельчак У ®
Модератор Apple

Online
Стаж: 5 лет 10 мес.
Сообщений: 3423
Ratio: 147,79
Поблагодарили: 112401
100%
Откуда: От Москвы недалеко...
ussr.gif
Король Лир / King Lear (2018) WEB-DL [1080p] ATV

Производство: Великобритания, США / Playground Entertainment, Sonia Friedman Productions, British Broadcasting Corporation (BBC)
Жанр: Драма, История

Режиссер: Ричард Эйр
Продюсер: Ноёлетт Бакли, Колин Кэллэндер, Элиз Долбек,
Актеры: Энтони Хопкинс, Чаквуди Ивуджи, Флоренс Пью, Джим Бродбент, Джим Картер, Тобайас Мензис, Эмили Уотсон, Джон Макмилла, Эмма Томпсон, Энтони Калф

Описание:
Экранизация великой трагедии Уильяма Шекспира от телекомпании BBC, в современных декорациях. Стареющий король Лир решает разделить власть между тремя дочерьми, если те выразят ему свою любовь. Младшая дочь не приемлет лесть и за это отправляется в изгнание, а две старшие – заискивают и получают королевство. Добившись желаемого, они обнажают свои истинные намерения и выступают против отца, который теперь сам становится изгнанником.


Дата мировой премьеры: 28 мая 2018

Продолжительность: 01:55:09
Качество видео: WEB-DL 1080р AMAZON
Перевод: Многоголосый профессиональный
Субтитры: Русские ( FOCS, tsepesh), английские

Видео: H.264, 1920x1080 (16:9), ~7203 kbps, 23.976 fps
Аудио#1: AAC, 2.0 ch, 230 Kbps - Русский MVO, Jaskier
Аудио#2: AAC, 2.0 ch, 230 Kbps - Русский MVO, HDRezka Studio
Аудио#3: AAC, 2.0 ch, 229 Kbps - Русский MVO, Good People
Аудио#4: AAC, 2.0 ch, 230 Kbps - English, Original
Аудио#5: AC-3, 6.0 ch, 640 Kbps - English, Original
Общее
Полное имя : /Volumes/HDD/Movies/King.Lear.2018.AMZN.WEB-DL.1080p.m4v
Формат : MPEG-4
Идентификатор кодека : M4V (M4V /M4A /mp42/isom)
Размер файла : 7,06 Гбайт
Продолжительность : 1 ч. 55 м.
Режим общего битрейта : Переменный
Общий поток : 8775 Кбит/сек
Название фильма : King Lear
Исполнитель : Richard Eyre
Композитор : Stephen Warbeck
Режиссёр : Richard Eyre
Исполнитель : Anthony Hopkins / Emma Thompson / Emily Watson / Jim Broadbent / Florence Pugh / Jim Carter / Andrew Scott / John MacMillan / Tobias Menzies / Anthony Calf / Karl Johnson / Christopher Eccleston / John Standing / Simon Manyonda / Chukwudi Iwuji / Samuel Valentine / Arinzé Kene / Sharon Wattis / Kaye Brown / Raphael Desprez / Peter Forbes / Sam Redford / Liam McKenna / Paul Tinto / Eric Kofi Abrefa / Nick Khan / Yassine Mkhichen / Matt Rentell / Daria Riz / Belal Sabir / Karma Sood / Shawn Dixon / Bernardo Santos
Сценарист : William Shakespeare / Richard Eyre
Продюсер : Noëlette Buckley
Исполнительный продюсер : Colin Callender, Sonia Friedman, Scott Huff, Fergus Haycock, Laura Macara, Lucy Richer
Студия-производитель : Playground Entertainment, Sonia Friedman Productions, BBC, Amazon Studios, Lemaise Pictures
Жанр : Drama
Тип содержимого : Short Film
Описание : An aging King invites disaster, when he abdicates to his corrupt, toadying daughters, and rejects his loving and honest one.
Дата записи : UTC 2018-05-28 00:00:00
Дата кодирования : UTC 2019-09-16 21:15:09
Дата пометки : UTC 2019-09-16 21:21:36
Обложка : Yes
LongDescription : An aging King invites disaster, when he abdicates to his corrupt, toadying daughters, and rejects his loving and honest one.
ContentRating : mpaa|Unrated|???|

Видео #1
Идентификатор : 1
Формат : AVC
Формат/Информация : Advanced Video Codec
Профиль формата : High@L4
Настройки формата : CABAC / 4 Ref Frames
Параметр CABAC формата : Да
Параметр ReFrames формата : 4 кадра
Идентификатор кодека : avc1
Идентификатор кодека/Информация : Advanced Video Coding
Продолжительность : 1 ч. 55 м.
Вид битрейта : Постоянный
Битрейт : 7203 Кбит/сек
Номинальный битрейт : 10000 Кбит/сек
Ширина : 1920 пикселей
Высота : 1080 пикселей
Соотношение сторон : 16:9
Режим частоты кадров : Постоянный
Частота кадров : 25,000 кадров/сек
Цветовое пространство : YUV
Субдискретизация насыщенности : 4:2:0
Битовая глубина : 8 бит
Тип развёртки : Прогрессивная
Бит/(Пиксели*Кадры) : 0.139
Размер потока : 5,79 Гбайт (82%)
Язык : English
Дата кодирования : UTC 2019-09-16 21:15:09
Дата пометки : UTC 2019-09-16 21:21:27
Цветовой диапазон : Limited
Основные цвета : BT.709
Характеристики трансфера : BT.709
Коэффициенты матрицы : BT.709
Menus : 10,11
Codec configuration box : avcC

Видео #2
Идентификатор : 11
Формат : JPEG
Идентификатор кодека : jpeg
Продолжительность : 1 ч. 55 м.
Вид битрейта : Переменный
Битрейт : 727 бит/сек
Ширина : 640 пикселей
Высота : 360 пикселей
Соотношение сторон : 16:9
Режим частоты кадров : Переменный
Частота кадров : 0,003 кадр/сек
Минимальная частота кадров : 0,002 кадр/сек
Максимальная частота кадров : 0,200 кадр/сек
Цветовое пространство : YUV
Субдискретизация насыщенности : 4:2:0
Битовая глубина : 8 бит
Метод сжатия : С потерями
Бит/(Пиксели*Кадры) : 1.052
Размер потока : 650 Кбайт (0%)
Язык : English
Default : Нет
Дата кодирования : UTC 2019-09-16 21:21:35
Дата пометки : UTC 2019-09-16 21:21:35
Menu For : 1
ColorSpace_ICC : RGB

Аудио #1
Идентификатор : 2
Формат : AAC LC
Формат/Информация : Advanced Audio Codec Low Complexity
Идентификатор кодека : mp4a-40-2
Продолжительность : 1 ч. 55 м.
Вид битрейта : Переменный
Битрейт : 230 Кбит/сек
Максимальный битрейт : 386 Кбит/сек
Каналы : 2 канала
Channel layout : L R
Частота : 48,0 КГц
Частота кадров : 46,875 кадров/сек (1024 SPF)
Метод сжатия : С потерями
Размер потока : 190 Мбайт (3%)
Язык : Russian
Default : Да
Alternate group : 1
Дата кодирования : UTC 2019-09-16 21:15:09
Дата пометки : UTC 2019-09-16 21:21:27
tagc : public.main-program-content

Аудио #2
Идентификатор : 3
Формат : AAC LC
Формат/Информация : Advanced Audio Codec Low Complexity
Идентификатор кодека : mp4a-40-2
Продолжительность : 1 ч. 55 м.
Вид битрейта : Переменный
Битрейт : 230 Кбит/сек
Максимальный битрейт : 366 Кбит/сек
Каналы : 2 канала
Channel layout : L R
Частота : 48,0 КГц
Частота кадров : 46,875 кадров/сек (1024 SPF)
Метод сжатия : С потерями
Размер потока : 190 Мбайт (3%)
Язык : Russian
Default : Нет
Alternate group : 1
Дата кодирования : UTC 2019-09-16 21:15:09
Дата пометки : UTC 2019-09-16 21:21:27
tagc : public.auxiliary-content

Аудио #3
Идентификатор : 4
Формат : AAC LC
Формат/Информация : Advanced Audio Codec Low Complexity
Идентификатор кодека : mp4a-40-2
Продолжительность : 1 ч. 55 м.
Вид битрейта : Переменный
Битрейт : 229 Кбит/сек
Максимальный битрейт : 350 Кбит/сек
Каналы : 2 канала
Channel layout : L R
Частота : 48,0 КГц
Частота кадров : 46,875 кадров/сек (1024 SPF)
Метод сжатия : С потерями
Размер потока : 188 Мбайт (3%)
Язык : Russian
Default : Нет
Alternate group : 1
Дата кодирования : UTC 2019-09-16 21:15:09
Дата пометки : UTC 2019-09-16 21:21:27
tagc : public.auxiliary-content

Аудио #4
Идентификатор : 5
Формат : AAC LC
Формат/Информация : Advanced Audio Codec Low Complexity
Идентификатор кодека : mp4a-40-2
Продолжительность : 1 ч. 55 м.
Продолжительность оригинала : 1 ч. 55 м.
Вид битрейта : Переменный
Битрейт : 230 Кбит/сек
Максимальный битрейт : 421 Кбит/сек
Каналы : 2 канала
Channel layout : L R
Частота : 48,0 КГц
Частота кадров : 46,875 кадров/сек (1024 SPF)
Метод сжатия : С потерями
Размер потока : 189 Мбайт (3%)
Размер потока оригинала : 189 Мбайт (3%)
Язык : English
Default : Нет
Alternate group : 1
Дата кодирования : UTC 2019-09-16 21:15:09
Дата пометки : UTC 2019-09-16 21:16:58
Fallback From : 6
tagc : public.main-program-content

Аудио #5
Идентификатор : 6
Формат : AC-3
Формат/Информация : Audio Coding 3
Коммерческое название : Dolby Digital
Идентификатор кодека : ac-3
Продолжительность : 1 ч. 55 м.
Вид битрейта : Постоянный
Битрейт : 640 Кбит/сек
Каналы : 6 каналов
Channel layout : L R C LFE Ls Rs
Частота : 48,0 КГц
Частота кадров : 31,250 кадров/сек (1536 SPF)
Битовая глубина : 16 бит
Метод сжатия : С потерями
Размер потока : 527 Мбайт (7%)
Язык : English
Service kind : Complete Main
Default : Нет
Alternate group : 1
Дата кодирования : UTC 2019-09-16 21:15:09
Дата пометки : UTC 2019-09-16 21:16:58
Fallback To : 5
tagc : public.main-program-content

Текст #1
Идентификатор : 7
Формат : Timed Text
Режим смешивания : sbtl
Идентификатор кодека : tx3g
Продолжительность : 1 ч. 53 м.
Вид битрейта : Переменный
Битрейт : 110 бит/сек
Размер потока : 91,9 Кбайт (0%)
Язык : Russian
Default : Да
Forced : Нет
Alternate group : 2
Дата кодирования : UTC 2019-09-16 21:15:09
Дата пометки : UTC 2019-09-16 21:21:27
tagc : public.main-program-content

Текст #2
Идентификатор : 8
Формат : Timed Text
Режим смешивания : sbtl
Идентификатор кодека : tx3g
Продолжительность : 1 ч. 54 м.
Вид битрейта : Переменный
Битрейт : 120 бит/сек
Размер потока : 101 Кбайт (0%)
Язык : Russian
Default : Нет
Forced : Нет
Alternate group : 2
Дата кодирования : UTC 2019-09-16 21:15:09
Дата пометки : UTC 2019-09-16 21:21:27
tagc : public.auxiliary-content

Текст #3
Идентификатор : 9
Формат : Timed Text
Режим смешивания : sbtl
Идентификатор кодека : tx3g
Продолжительность : 1 ч. 53 м.
Вид битрейта : Переменный
Битрейт : 76 бит/сек
Размер потока : 63,2 Кбайт (0%)
Язык : English
Default : Нет
Forced : Нет
Alternate group : 2
Дата кодирования : UTC 2019-09-16 21:15:09
Дата пометки : UTC 2019-09-16 21:21:27
tagc : public.main-program-content

Меню
Идентификатор : 10
Идентификатор кодека : text
Продолжительность : 1 ч. 55 м.
Язык : English
Дата кодирования : UTC 2019-09-16 21:21:27
Дата пометки : UTC 2019-09-16 21:21:27
Menu For : 1
00:00:00.000 : Studio Logo
00:00:05.000 : Opening Credits
00:01:22.000 : King Lear decides to divide his kingdom among his three daughters
00:06:05.000 : Cordelia speaks the truth and others face dire consequences
00:13:05.000 : Edmund hatches a plot
00:19:22.000 : The Earl of Kent is a slave to his loyalty to the king
00:24:53.000 : Goneril is concerned for her father's health
00:33:13.000 : Edmund's plot unfolds | Regan avoids her father
00:41:15.000 : Regan and Goneril tell Lear he is unwell and must go
00:47:40.000 : Lear suspects an evil plot between his daughters
00:54:45.000 : Gloucester hatches a plot | Lear wanders into a refugee camp
00:59:27.000 : Gloucester suggests the king flee to Dover
01:06:31.999 : Regan and Cornwall accuse Gloucester of treason
01:13:12.000 : Edgar leads Gloucester to the cliffs of Dover
01:18:13.000 : Lear is reunited with Gloucester, Edgar, and his men
01:23:04.000 : Goneril and Regan must decide if they are going to war
01:27:33.000 : Cordelia forgives her father for disowning her
01:32:58.000 : The war is quickly won | Albany accuses Edmund of treason
01:40:49.000 : Edmund fights to the death for his honor
01:43:55.000 : Everyone's evil plots are revealed
01:46:08.000 : The kingdom remains under a cloud of sorrow and regret
01:54:14.000 : End Credits
Код: выделить все

Name: King Lear
Artist: Richard Eyre
Media Kind: 9
HD Video: 2
Genre: Drama
Release Date: 2018-05-28T00:00:00Z
Description: An aging King invites disaster, when he abdicates to his corrupt, toadying daughters, and rejects his loving and honest one.
Long Description: An aging King invites disaster, when he abdicates to his corrupt, toadying daughters, and rejects his loving and honest one.
Rating: mpaa|Unrated|???|
Studio: Playground Entertainment, Sonia Friedman Productions, BBC, Amazon Studios, Lemaise Pictures
Cast: Anthony Hopkins, Emma Thompson, Emily Watson, Jim Broadbent, Florence Pugh, Jim Carter, Andrew Scott, John MacMillan, Tobias Menzies, Anthony Calf, Karl Johnson, Christopher Eccleston, John Standing, Simon Manyonda, Chukwudi Iwuji, Samuel Valentine, Arinzé Kene, Sharon Wattis, Kaye Brown, Raphael Desprez, Peter  Forbes, Sam Redford, Liam McKenna, Paul Tinto, Eric Kofi Abrefa, Nick Khan, Yassine Mkhichen, Matt Rentell, Daria Riz, Belal Sabir, Karma Sood, Shawn Dixon, Bernardo Santos
Director: Richard Eyre
Producers: Noëlette Buckley
Executive Producer: Colin Callender, Sonia Friedman, Scott Huff, Fergus Haycock, Laura Macara, Lucy Richer
Screenwriters: William Shakespeare, Richard Eyre
Composer: Stephen Warbeck

Скриншоты:


Все одноименные релизы в Клубе
Время раздачи: 24/7 (до появления первых 3-5 скачавших)

Релиз подготовлен для просмотра на Apple TV, iPad, iPhone, iPod Touch.
Для просмотра данного релиза на компьютере с ОС Windows рекомендуется использовать VLC media player
[NNMClub.to]_King.Lear.2018.AMZN.WEB-DL.1080p.m4v.torrent
 Торрент: Золотая раздача  Зарегистрирован
 
Зарегистрируйтесь и скачайте торрент!
70,8 KB

Примагнититься
 Зарегистрирован:   17 Сен 2019 01:20:32
 Размер:   7,06 GB  (
 Рейтинг:    (Голосов: 9)
 Поблагодарили:   67
 Проверка:   Оформление проверено модератором 17 Сен 2019 20:29:33
Как cкачать  ·  Как раздать  ·  Правильно оформить  ·  Поднять ратио!  

_________________
«Всё против нас, только ветер навстречу…».
🍏Apple iMac 21.5 (mid 2011) / Intel Core i5 2.7 GHz / AMD Radeon HD 6770M 512 Mb / 12GB DDR3 / Apple Trackpad, Apple Keyboard / macOS High Sierra 10.13.6 (17G8030)
RiCH33
Стаж: 6 лет 7 мес.
Сообщений: 11
Ratio: 2,388
8%
как фильм?
westjack
Стаж: 5 лет 1 мес.
Сообщений: 472
Ratio: 4,892
2.17%
RiCH33 писал(а): Перейти к сообщению
как фильм?


Что Лир, что Тит Андроник, все у Хопкинса выходит одинаково, хотя уже ровно 20 лет прошло. Натужно и вымученно. Остальное IMHO уже не важно.

Короче на любителя.
Показать сообщения:   
Начать новую тему   Ответить на тему    Торрент-трекер NNM-Club -> Аудио и Видео -> Зарубежное видео HD для устройств Apple Часовой пояс: GMT + 3
Страница 1 из 1