Классический форум-трекер
canvas not supported
Нас вместе: 4 079 484

Белеет парус одинокий (1937) DVDRip


 
 
RSS
Начать новую тему   Ответить на тему    Торрент-трекер NNM-Club -> Видео -> Отечественные Фильмы для детей
Автор Сообщение
almikl ®
Куратор Детского.
Модератор Видео.
RG Всё лучшее - детям!
Uploader 500+
 
Стаж: 12 лет 4 мес.
Сообщений: 4758
Ratio: 340,527
Поблагодарили: 107542
100%
Откуда: Дааалекое Подмосковье
russia.gif
Белеет парус одинокий (1937) DVDRip
Производство: СССР, Союздетфильм, восстановлен на к/с им. Горького
Жанр: Семейный, драма, детский

Режиссер: Владимир Легошин
Сценарий: Валентин Катаев
Актеры: Игорь Бут, Борис Рунге, Светлана Прядилова, Ирина Большакова, Александр Мельников, Н. Плотников, Иван Пельтцер, А. Чекаевский, Ф. Никитин, О. Пыжова, М. Ляров, Даниил Сагал, П. Старковский

Описание : События, разворачивающиеся в Одессе в 1905 году, вскоре после подавления восстания на броненосце "Потемкин", показаны с точки зрения двух мальчиков - Пети и Гаврика. Вместе с ними зритель оказывается в самой гуще происходящего...Сценарий написан Валентином Катаевым на основе его повести "Белеет парус одинокий". Катаев активно участвовал в работе над фильмом, снятом к 20-летию Октября. Писатель утвердил кинопробы, ездил для уточнения мест съемки в Одессу,рассказывал о происшествиях, которым был очевидцем тридцать лет назад.


Возраст: 0+ (для любого возраста)

Продолжительность: 01:21:36
Качество видео: DVDRip (700 mb)

Видео: XviD, 720x544, ~1000 Kbps
Аудио: MP3, 2 ch, 128 Kbps

Общее
Полное имя : Белеет парус одинокий.1937.DVDRip.700.almikl.nnmclub.avi
Формат : AVI
Формат/Информация : Audio Video Interleave
Размер файла : 700 Мбайт
Продолжительность : 1 ч. 21 м.
Режим общего битрейта : Переменный
Общий поток : 1198 Кбит/сек
Программа кодирования : VirtualDubMod 1.5.4.1 (build 2178/release)
Библиотека кодирования : VirtualDubMod build 2178/release

Видео
Идентификатор : 0
Формат : MPEG-4 Visual
Профиль формата : Advanced Simple@L5
Настройки формата : BVOP1 / Custom Matrix
Параметр BVOP формата : 1
Параметр QPel формата : Нет
Параметр GMC формата : Без точки перехода
Параметр матрицы формата : Выборочная
Идентификатор кодека : XVID
Идентификатор кодека/Подсказка : XviD
Продолжительность : 1 ч. 21 м.
Битрейт : 1072 Кбит/сек
Ширина : 720 пикселей
Высота : 544 пикселя
Соотношение сторон : 4:3
Частота кадров : 25,000 кадров/сек
Цветовое пространство : YUV
Субдискретизация насыщенности : 4:2:0
Битовая глубина : 8 бит
Тип развёртки : Прогрессивная
Метод сжатия : С потерями
Бит/(Пиксели*Кадры) : 0.110
Размер потока : 626 Мбайт (89%)
Библиотека кодирования : XviD 73

Аудио
Идентификатор : 1
Формат : MPEG Audio
Версия формата : Version 1
Профиль формата : Layer 3
Настройки формата : Joint stereo
Идентификатор кодека : 55
Идентификатор кодека/Подсказка : MP3
Продолжительность : 1 ч. 21 м.
Вид битрейта : Переменный
Битрейт : 113 Кбит/сек
Номинальный битрейт : 128 Кбит/сек
Каналы : 2 канала
Частота : 48,0 КГц
Частота кадров : 41,667 кадра/сек (1152 SPF)
Метод сжатия : С потерями
Размер потока : 66,0 Мбайт (9%)
Выравнивание : Соединение по промежуткам
Продолжительность промежутка : 24 мс. (0,60 видеокадр)
Время предзагрузки промежутка : 566 мс.
Библиотека кодирования : LAME3.98r
Настройки программы : -m j -V 4 -q 2 -lowpass 17 --abr 128
Скриншоты:


Все одноименные релизы в Клубе

Время раздачи: 24/7 (до появления первых 3-5 скачавших)
Beleet parus odinokiy.1937.DVDRip.700.almikl.nnmclub.avi.torrent
 Торрент: Платиновая раздача  Зарегистрирован
 
Скачать


Примагнититься
 Зарегистрирован:   18 Сен 2019 17:05:28
 Размер:   700 MB  (
 Рейтинг:    (Голосов: 4)
 Поблагодарили:   31
 Проверка:   Оформление проверено модератором 18 Сен 2019 17:07:53
Как cкачать  ·  Как раздать  ·  Правильно оформить  ·  Поднять ратио!  
hopper591
Стаж: 6 лет 11 мес.
Сообщений: 77
Ratio: 26,409
100%
кстати, в Одессе есть памятник Пете и Гаврику, точнее фонтанчик, со скульптурами литературных героев. но это лучшее произведение Валентина Катаева. Если кто помнит КАБАЧЕК 13 СТУЛЬЕВ, то Борис Рунге, который сыграл Петю в фильме - это пан Профессор
Показать сообщения:   
Начать новую тему   Ответить на тему    Торрент-трекер NNM-Club -> Видео -> Отечественные Фильмы для детей Часовой пояс: GMT + 3
Страница 1 из 1