Классический форум-трекер
canvas not supported
Нас вместе: 4 079 354

Белеет парус одинокий (1937) DVDRip


 
 
RSS
Начать новую тему   Ответить на тему    Торрент-трекер NNM-Club -> Видео -> Отечественные Фильмы для детей
Автор Сообщение
almikl ®
Куратор Детского.
Модератор Видео.
RG Всё лучшее - детям!
Uploader 500+
 
Стаж: 12 лет 4 мес.
Сообщений: 4758
Ratio: 339,997
Поблагодарили: 107514
100%
Откуда: Дааалекое Подмосковье
russia.gif
Белеет парус одинокий (1937) DVDRip
Производство: СССР, Союздетфильм, восстановлен на к/с им. Горького
Жанр: Семейный, драма, детский

Режиссер: Владимир Легошин
Сценарий: Валентин Катаев
Актеры: Игорь Бут, Борис Рунге, Светлана Прядилова, Ирина Большакова, Александр Мельников, Н. Плотников, Иван Пельтцер, А. Чекаевский, Ф. Никитин, О. Пыжова, М. Ляров, Даниил Сагал, П. Старковский

Описание : События, разворачивающиеся в Одессе в 1905 году, вскоре после подавления восстания на броненосце "Потемкин", показаны с точки зрения двух мальчиков - Пети и Гаврика. Вместе с ними зритель оказывается в самой гуще происходящего...Сценарий написан Валентином Катаевым на основе его повести "Белеет парус одинокий". Катаев активно участвовал в работе над фильмом, снятом к 20-летию Октября. Писатель утвердил кинопробы, ездил для уточнения мест съемки в Одессу,рассказывал о происшествиях, которым был очевидцем тридцать лет назад.


Возраст: 0+ (для любого возраста)

Продолжительность: 01:21:36
Качество видео: DVDRip

Видео: XviD, 720x544, ~2000 Kbps
Аудио: AC3, 2 ch, 384 Kbps

Общее
Полное имя : Белеет парус одинокий.1937.DVDRip.almikl.nnmclub.avi
Формат : AVI
Формат/Информация : Audio Video Interleave
Размер файла : 1,36 Гбайт
Продолжительность : 1 ч. 21 м.
Общий поток : 2393 Кбит/сек
Программа кодирования : VirtualDubMod 1.5.4.1 (build 2178/release)
Библиотека кодирования : VirtualDubMod build 2178/release

Видео
Идентификатор : 0
Формат : MPEG-4 Visual
Профиль формата : Advanced Simple@L5
Настройки формата : BVOP1 / Custom Matrix
Параметр BVOP формата : 1
Параметр QPel формата : Нет
Параметр GMC формата : Без точки перехода
Параметр матрицы формата : Выборочная
Идентификатор кодека : XVID
Идентификатор кодека/Подсказка : XviD
Продолжительность : 1 ч. 21 м.
Битрейт : 2003 Кбит/сек
Ширина : 720 пикселей
Высота : 544 пикселя
Соотношение сторон : 4:3
Частота кадров : 25,000 кадров/сек
Цветовое пространство : YUV
Субдискретизация насыщенности : 4:2:0
Битовая глубина : 8 бит
Тип развёртки : Прогрессивная
Метод сжатия : С потерями
Бит/(Пиксели*Кадры) : 0.205
Размер потока : 1,14 Гбайт (84%)
Библиотека кодирования : XviD 73

Аудио
Идентификатор : 1
Формат : AC-3
Формат/Информация : Audio Coding 3
Коммерческое название : Dolby Digital
Идентификатор кодека : 2000
Продолжительность : 1 ч. 21 м.
Вид битрейта : Постоянный
Битрейт : 384 Кбит/сек
Каналы : 2 канала
ChannelLayout : L R
Частота : 48,0 КГц
Частота кадров : 31,250 кадров/сек (1536 SPF)
Метод сжатия : С потерями
Размер потока : 224 Мбайт (16%)
Выравнивание : Разделение по промежуткам
Продолжительность промежутка : 96 мс. (2,40 видеокадра)
Время предзагрузки промежутка : 96 мс.
ServiceKind/String : Complete Main
Скриншоты:


Все одноименные релизы в Клубе

Время раздачи: 24/7 (до появления первых 3-5 скачавших)
Beleet parus odinokiy.1937.DVDRip.almikl.nnmclub.avi.torrent
 Торрент: Платиновая раздача  Зарегистрирован
 
Скачать


Примагнититься
 Зарегистрирован:   18 Сен 2019 17:12:10
 Размер:   1,36 GB  (
 Рейтинг:    (Голосов: 4)
 Поблагодарили:   29
 Проверка:   Оформление проверено модератором 19 Сен 2019 08:01:05
Как cкачать  ·  Как раздать  ·  Правильно оформить  ·  Поднять ратио!  
alex86m6
Uploader 100+
 
Стаж: 7 лет 7 мес.
Сообщений: 256
Ratio: 149,36
72.06%
Откуда: Moscow
russia.gif
Один из любимых фильмов детства.
Показать сообщения:   
Начать новую тему   Ответить на тему    Торрент-трекер NNM-Club -> Видео -> Отечественные Фильмы для детей Часовой пояс: GMT + 3
Страница 1 из 1