Классический форум-трекер
canvas not supported
Нас вместе: 4 079 050

Бык (2019) WEB-DL [1080p] ATV


 
 
RSS
Начать новую тему   Ответить на тему    Торрент-трекер NNM-Club -> Аудио и Видео -> Отечественное видео HD для устройств Apple
Автор Сообщение
Весельчак У ®
Модератор Apple
Стаж: 5 лет 10 мес.
Сообщений: 3303
Ratio: 147,666
Поблагодарили: 108958
100%
Откуда: От Москвы недалеко...
ussr.gif
Бык (2019) WEB-DL [1080p] ATV
Производство: Россия / ВГИК-Дебют
Жанр: Драма

Режиссер: Борис Акопов
Продюсер: Федор Попов, Владимир Малышев, Михаил Чечельницкий
Актеры: Юрий Борисов, Стася Милославская, Афина Кондрашова, Егор Кенжаметов, Александр Самсонов, Игорь Савочкин, Алексей Филимонов, Сергей Двойников, Александр Левин, Роман Колотухин

Описание:
90-е годы. Экономическая пропасть и криминальные драмы, разворачивающиеся буквально на каждом углу. Молодой лидер преступной группировки Антон Быков по прозвищу «Бык» вынужден зарабатывать любыми способами, чтобы обеспечить свою семью. После районной «стрелки» Антон попадает в отделение милиции, откуда его вызволяет один из московских авторитетов. Взамен он просит героя о маленькой, но опасной услуге.


Возраст: 16+ (зрителям, достигшим 16 лет)
Дата мировой премьеры: 2 июля 2019
Дата российской премьеры: 22 августа 2019, «WDSSPR»

Продолжительность: 01:39:27
Качество видео: WEB-DL 1080р
Перевод: Не требуется, русский
Субтитры: Отсутствуют

Видео: H.264, 1912x712 (2,685), ~4554 kbps, 23.976 fps
Аудио#1: AAC, 2.0 ch, 192 Kbps - Русский, iTunes
Аудио#2: AC3, 6.0 ch, 384 Kbps - Русский, iTunes

Общее
Полное имя : /Volumes/HDD/Movies/Byk.WEB-DL.1080p.m4v
Формат : MPEG-4
Идентификатор кодека : M4V (M4V /M4A /mp42/isom)
Размер файла : 3,57 Гбайт
Продолжительность : 1 ч. 39 м.
Режим общего битрейта : Переменный
Общий поток : 5140 Кбит/сек
Название фильма : Бык
Исполнитель : Борис Акопов
Режиссёр : Борис Акопов
Исполнитель : Юрий Борисов / Стася Милославская / Афина Кондрашова / Егор Кенжаметов / Александр Самсонов / Игорь Савочкин / Алексей Филимонов / Сергей Двойников
Сценарист : Борис Акопов
Продюсер : Федор Попов / Владимир Малышев / Михаил Чечельницкий
Студия-производитель : ООО "Продюсерский центр "ВГИК-Дебют"
Жанр : Боевики и приключения
Тип содержимого : Short Film
Описание : Фильм – обладатель главного приза и приза «за лучшую операторскую работу» 30-го «Кинотавра» и Гран-При в программе East of the West Международного Кинофестиваля в Карловых Варах. 90-е годы. Экономическая пропасть и криминальные драмы, разворачивающиеся буквально на каждом углу. Молодой лидер преступной группировки Антон Быков по прозвищу «Бык» вынужден зарабатывать любыми способами, чтобы обеспечить свою семью. После районной «стрелки» Антон попадает в отделение милиции, откуда его вызволяет один из московских авторитетов. Взамен он просит героя о маленькой, но опасной услуге.
Дата записи : UTC 2019-08-22 07:00:00
Дата кодирования : UTC 2019-09-18 21:31:01
Дата пометки : UTC 2019-09-18 21:34:03
Обложка : Yes
LongDescription : Фильм – обладатель главного приза и приза «за лучшую операторскую работу» 30-го «Кинотавра» и Гран-При в программе East of the West Международного Кинофестиваля в Карловых Варах. 90-е годы. Экономическая пропасть и криминальные драмы, разворачивающиеся буквально на каждом углу. Молодой лидер преступной группировки Антон Быков по прозвищу «Бык» вынужден зарабатывать любыми способами, чтобы обеспечить свою семью. После районной «стрелки» Антон попадает в отделение милиции, откуда его вызволяет один из московских авторитетов. Взамен он просит героя о маленькой, но опасной услуге.
AppleStoreCountry : Russia
AppleStoreCatalogID : 1477151890
ContentRating : ru-movie|16+|375|

Видео #1
Идентификатор : 1
Формат : AVC
Формат/Информация : Advanced Video Codec
Профиль формата : High@L4
Настройки формата : CABAC / 5 Ref Frames
Параметр CABAC формата : Да
Параметр ReFrames формата : 5 кадров
Параметр GOP формата : M=2, N=119
Идентификатор кодека : avc1
Идентификатор кодека/Информация : Advanced Video Coding
Продолжительность : 1 ч. 39 м.
Битрейт : 4554 Кбит/сек
Ширина : 1912 пикселей
Высота : 712 пикселей
Соотношение сторон : 2,685
Частота кадров : 23,976 кадра/сек
Цветовое пространство : YUV
Субдискретизация насыщенности : 4:2:0
Битовая глубина : 8 бит
Тип развёртки : Прогрессивная
Бит/(Пиксели*Кадры) : 0.140
Размер потока : 3,16 Гбайт (89%)
Язык : English
Дата кодирования : UTC 2019-09-18 21:31:01
Дата пометки : UTC 2019-09-18 21:33:57
Цветовой диапазон : Limited
Основные цвета : BT.709
Характеристики трансфера : BT.709
Коэффициенты матрицы : BT.709
Menus : 4,5
Codec configuration box : avcC

Видео #2
Идентификатор : 5
Формат : JPEG
Идентификатор кодека : jpeg
Продолжительность : 1 ч. 39 м.
Вид битрейта : Переменный
Битрейт : 400 бит/сек
Ширина : 640 пикселей
Высота : 238 пикселей
Соотношение сторон : 2,689
Режим частоты кадров : Переменный
Частота кадров : 0,002 кадр/сек
Минимальная частота кадров : 0,001 кадр/сек
Максимальная частота кадров : 0,009 кадр/сек
Цветовое пространство : YUV
Субдискретизация насыщенности : 4:2:0
Битовая глубина : 8 бит
Метод сжатия : С потерями
Бит/(Пиксели*Кадры) : 1.313
Размер потока : 269 Кбайт (0%)
Язык : English
Default : Нет
Дата кодирования : UTC 2019-09-18 21:34:02
Дата пометки : UTC 2019-09-18 21:34:03
Menu For : 1
ColorSpace_ICC : RGB

Аудио #1
Идентификатор : 2
Формат : AAC LC
Формат/Информация : Advanced Audio Codec Low Complexity
Идентификатор кодека : mp4a-40-2
Продолжительность : 1 ч. 39 м.
Вид битрейта : Переменный
Битрейт : 192 Кбит/сек
Максимальный битрейт : 310 Кбит/сек
Каналы : 2 канала
Channel layout : L R
Частота : 48,0 КГц
Частота кадров : 46,875 кадров/сек (1024 SPF)
Метод сжатия : С потерями
Размер потока : 139 Мбайт (4%)
Язык : Russian
Default : Да
Alternate group : 1
Дата кодирования : UTC 2019-09-18 21:31:01
Дата пометки : UTC 2019-09-18 21:33:57
Fallback From : 3
tagc : public.main-program-content

Аудио #2
Идентификатор : 3
Формат : AC-3
Формат/Информация : Audio Coding 3
Коммерческое название : Dolby Digital
Идентификатор кодека : ac-3
Продолжительность : 1 ч. 39 м.
Вид битрейта : Постоянный
Битрейт : 384 Кбит/сек
Каналы : 6 каналов
Channel layout : L R C LFE Ls Rs
Частота : 48,0 КГц
Частота кадров : 31,250 кадров/сек (1536 SPF)
Битовая глубина : 16 бит
Метод сжатия : С потерями
Размер потока : 273 Мбайт (7%)
Язык : Russian
Service kind : Complete Main
Default : Inherited From: 2
Alternate group : 1
Дата кодирования : UTC 2019-09-18 21:31:01
Дата пометки : UTC 2019-09-18 21:33:57
Fallback To : 2
tagc : public.main-program-content

Меню
Идентификатор : 4
Идентификатор кодека : text
Продолжительность : 1 ч. 39 м.
Язык : English
Дата кодирования : UTC 2019-09-18 21:33:58
Дата пометки : UTC 2019-09-18 21:33:58
Menu For : 1
00:00:00.000 : 1
00:09:33.000 : 2
00:18:51.000 : 3
00:29:59.000 : 4
00:39:18.000 : 5
00:50:24.000 : 6
01:00:13.000 : 7
01:10:30.000 : 8
01:20:09.000 : 9
01:29:58.000 : 10
01:37:40.000 : 11


Name: Бык
Artist: Борис Акопов
Media Kind: Movie
HD Video: 1080p
Genre: Боевики и приключения
Release Date: 2019-08-22T07:00:00Z
Description: Фильм – обладатель главного приза и приза «за лучшую операторскую работу» 30-го «Кинотавра» и Гран-При в программе East of the West Международного Кинофестиваля в Карловых Варах. 90-е годы. Экономическая пропасть и криминальные драмы, разворачивающиеся буквально на каждом углу. Молодой лидер преступной группировки Антон Быков по прозвищу «Бык» вынужден зарабатывать любыми способами, чтобы обеспечить свою семью. После районной «стрелки» Антон попадает в отделение милиции, откуда его вызволяет один из московских авторитетов. Взамен он просит героя о маленькой, но опасной услуге.
Long Description: Фильм – обладатель главного приза и приза «за лучшую операторскую работу» 30-го «Кинотавра» и Гран-При в программе East of the West Международного Кинофестиваля в Карловых Варах. 90-е годы. Экономическая пропасть и криминальные драмы, разворачивающиеся буквально на каждом углу. Молодой лидер преступной группировки Антон Быков по прозвищу «Бык» вынужден зарабатывать любыми способами, чтобы обеспечить свою семью. После районной «стрелки» Антон попадает в отделение милиции, откуда его вызволяет один из московских авторитетов. Взамен он просит героя о маленькой, но опасной услуге.
Rating: ru-movie|16+|375|
Studio: ООО "Продюсерский центр "ВГИК-Дебют"
Cast: Юрий Борисов, Стася Милославская, Афина Кондрашова, Егор Кенжаметов, Александр Самсонов, Игорь Савочкин, Алексей Филимонов, Сергей Двойников
Director: Борис Акопов
Producers: Федор Попов, Владимир Малышев, Михаил Чечельницкий
Screenwriters: Борис Акопов
content ID: 1477151890
iTunes Country: 143469

Скриншоты:


Все одноименные релизы в Клубе
Время раздачи: 24/7 (до появления первых 3-5 скачавших)

Релиз подготовлен для просмотра на Apple TV, iPad, iPhone, iPod Touch.
Для просмотра данного релиза на компьютере с ОС Windows рекомендуется использовать VLC media player
[NNMClub.to]_Byk.WEB-DL.1080p.m4v.torrent
 Торрент:   Зарегистрирован
 
Зарегистрируйтесь и скачайте торрент!
35,9 KB

Примагнититься
 Зарегистрирован:   19 Сен 2019 00:49:41
 Размер:   3,57 GB  (
 Рейтинг:   4,8 (Голосов: 14)
 Поблагодарили:   86
 Проверка:   Оформление проверено модератором 19 Сен 2019 19:39:45
Как cкачать  ·  Как раздать  ·  Правильно оформить  ·  Поднять ратио!  

_________________
«Всё против нас, только ветер навстречу…».
🍏Apple iMac 21.5 (mid 2011) / Intel Core i5 2.7 GHz / AMD Radeon HD 6770M 512 Mb / 12GB DDR3 / Apple Trackpad, Apple Keyboard / macOS High Sierra 10.13.6 (17G8030)
Загрузка...
Весельчак У ®
Модератор Apple
Стаж: 5 лет 10 мес.
Сообщений: 3303
Ratio: 147,666
Поблагодарили: 108958
100%
Откуда: От Москвы недалеко...
ussr.gif
Юрий Борисов, талантливый, молодой актер. Запомнился еще по роли чудаковатого парня в сериале «Ольга».
Отличный дебют самого режиссера.

_________________
«Всё против нас, только ветер навстречу…».
🍏Apple iMac 21.5 (mid 2011) / Intel Core i5 2.7 GHz / AMD Radeon HD 6770M 512 Mb / 12GB DDR3 / Apple Trackpad, Apple Keyboard / macOS High Sierra 10.13.6 (17G8030)
Sa13
Стаж: 8 лет 7 мес.
Сообщений: 752
Ratio: 37,357
Раздал: 6,31 TB
100%
pirates.png
тяжелый фильм,но правдивый.а концовка вообще добила.честно говоря лучше бы не смотрел-как тяжело опять вспоминать те годы,хотя и сейчас не лучше.тогда был алкаш всея руси,теперь болтун всея руси.

_________________
Показать сообщения:   
Начать новую тему   Ответить на тему    Торрент-трекер NNM-Club -> Аудио и Видео -> Отечественное видео HD для устройств Apple Часовой пояс: GMT + 3
Страница 1 из 1