Классический форум-трекер
canvas not supported
Нас вместе: 4 079 306

Белеет парус одинокий (1937) DVDRemux


 
 
RSS
Начать новую тему   Ответить на тему    Торрент-трекер NNM-Club -> Видео -> Отечественные Фильмы для детей
Автор Сообщение
almikl ®
Куратор Детского.
Модератор Видео.
RG Всё лучшее - детям!
Uploader 500+
 
Стаж: 12 лет 4 мес.
Сообщений: 4758
Ratio: 340,587
Поблагодарили: 107543
100%
Откуда: Дааалекое Подмосковье
russia.gif
Белеет парус одинокий (1937) DVDRemux
Производство: СССР, Союздетфильм, восстановлен на к/с им. Горького
Жанр: Семейный, драма, детский

Режиссер: Владимир Легошин
Сценарий: Валентин Катаев
Актеры: Игорь Бут, Борис Рунге, Светлана Прядилова, Ирина Большакова, Александр Мельников, Н. Плотников, Иван Пельтцер, А. Чекаевский, Ф. Никитин, О. Пыжова, М. Ляров, Даниил Сагал, П. Старковский

Описание : События, разворачивающиеся в Одессе в 1905 году, вскоре после подавления восстания на броненосце "Потемкин", показаны с точки зрения двух мальчиков - Пети и Гаврика. Вместе с ними зритель оказывается в самой гуще происходящего...Сценарий написан Валентином Катаевым на основе его повести "Белеет парус одинокий". Катаев активно участвовал в работе над фильмом, снятом к 20-летию Октября. Писатель утвердил кинопробы, ездил для уточнения мест съемки в Одессу,рассказывал о происшествиях, которым был очевидцем тридцать лет назад.


Возраст: 0+ (для любого возраста)

Продолжительность: 01:21:36
Качество видео: DVDRemux

Видео: MPEG-2, 720x576@768x576, ~5000 Kbps
Аудио: AC3, 2 ch, 384 Kbps

Общее
Уникальный идентификатор : 305871415507905498285293367215720181066 (0xE61CB11B8032EB2BD8150D5B78532D4A)
Полное имя : Белеет парус одинокий.1937.DVDRemux.almikl.nnmclub.mkv
Формат : Matroska
Версия формата : Version 2
Размер файла : 3,34 Гбайт
Продолжительность : 1 ч. 21 м.
Режим общего битрейта : Переменный
Общий поток : 5860 Кбит/сек
Дата кодирования : UTC 2019-08-09 11:54:56
Программа кодирования : MakeMKV v1.14.3 win(x64-release)
Библиотека кодирования : libmakemkv v1.14.3 (1.3.5/1.4.7) win(x64-release)

Видео
Идентификатор : 1
OriginalSourceMedium_ID/String : 224 (0xE0)
Формат : MPEG Video
Версия формата : Version 2
Профиль формата : Main@Main
Настройки формата : CustomMatrix / BVOP
Параметр BVOP формата : Да
Параметр матрицы формата : Выборочная
Параметр GOP формата : Variable
Структура изображения : Frame
Идентификатор кодека : V_MPEG2
Идентификатор кодека/Информация : MPEG 1 or 2 Video
Продолжительность : 1 ч. 21 м.
Вид битрейта : Переменный
Битрейт : 5471 Кбит/сек
Максимальный битрейт : 9000 Кбит/сек
Ширина : 720 пикселей
Высота : 576 пикселей
Соотношение сторон : 4:3
Режим частоты кадров : Постоянный
Частота кадров : 25,000 кадров/сек
Стандарт вещания : PAL
Цветовое пространство : YUV
Субдискретизация насыщенности : 4:2:0
Битовая глубина : 8 бит
Тип развёртки : Чересстрочная
Порядок развёртки : Верхнее поле первое
Метод сжатия : С потерями
Бит/(Пиксели*Кадры) : 0.528
Временной код первого кадра : 00:00:00:00
Оригинал временного кода : Group of pictures header
Размер потока : 3,12 Гбайт (93%)
Библиотека кодирования : encoded by DVD Author PRO Version. 2.1.5.76
Язык : English
Default : Нет
Forced : Нет
Коэффициенты матрицы : BT.601
Носитель оригинала : DVD-Video

Аудио
Идентификатор : 2
OriginalSourceMedium_ID/String : 189 (0xBD)128 (0x80)
Формат : AC-3
Формат/Информация : Audio Coding 3
Коммерческое название : Dolby Digital
Идентификатор кодека : A_AC3
Продолжительность : 1 ч. 21 м.
Вид битрейта : Постоянный
Битрейт : 384 Кбит/сек
Каналы : 2 канала
ChannelLayout : L R
Частота : 48,0 КГц
Частота кадров : 31,250 кадров/сек (1536 SPF)
Метод сжатия : С потерями
Размер потока : 224 Мбайт (7%)
Заголовок : Stereo
Язык : English
ServiceKind/String : Complete Main
Default : Да
Forced : Нет
Носитель оригинала : DVD-Video

Меню
00:00:00.000 : en:Chapter 01
00:10:00.440 : en:Chapter 02
00:20:00.440 : en:Chapter 03
00:30:00.440 : en:Chapter 04
00:40:00.440 : en:Chapter 05
00:50:00.440 : en:Chapter 06
01:00:00.440 : en:Chapter 07
01:10:00.440 : en:Chapter 08
Скриншоты:

Все одноименные релизы в Клубе

Время раздачи: 24/7 (до появления первых 3-5 скачавших)
Beleet parus odinokiy.1937.DVDRemux.almikl.nnmclub.mkv.torrent
 Торрент: Платиновая раздача  Зарегистрирован
 
Скачать


Примагнититься
 Зарегистрирован:   19 Сен 2019 12:15:53
 Размер:   3,34 GB  (
 Рейтинг:    (Голосов: 7)
 Поблагодарили:   67
 Проверка:   Оформление проверено модератором 19 Сен 2019 12:16:32
Как cкачать  ·  Как раздать  ·  Правильно оформить  ·  Поднять ратио!  
kram
Стаж: 12 лет 9 мес.
Сообщений: 414
Ratio: 0,833
100%
Обложка прикольная.
Я и раньше подозревал, что Крав Магу придумали в Одессе...

Спасибо за довоенный фильм!
paroltotge
Стаж: 7 лет 8 мес.
Сообщений: 6
Ratio: 7,091
1.37%
[quote="kram";p="10309356"]Обложка прикольная.
Я и раньше подозревал, что Крав Магу придумали в Одессе...

Да что там Крав Мага... Вообще то - современный Израиль - придумали таки в Одессе)

https://odessa-life.od.ua/news/28333-v-odesse-otkryli-memorialnuyu-dosku-posvyaschennuyu-izrailyu-foto
Показать сообщения:   
Начать новую тему   Ответить на тему    Торрент-трекер NNM-Club -> Видео -> Отечественные Фильмы для детей Часовой пояс: GMT + 3
Страница 1 из 1