Классический форум-трекер
canvas not supported
Нас вместе: 4 079 364

Тигры на льду (1971) DVDRip


 
 
RSS
Начать новую тему   Ответить на тему    Торрент-трекер NNM-Club -> Видео -> Отечественные Фильмы для детей
Автор Сообщение
almikl ®
Куратор Детского.
Модератор Видео.
RG Всё лучшее - детям!
Uploader 500+
 
Стаж: 12 лет 4 мес.
Сообщений: 4758
Ratio: 340,006
Поблагодарили: 107514
100%
Откуда: Дааалекое Подмосковье
russia.gif
Тигры на льду (1971) DVDRip
Производство: СССР, Одесская киностудия
Жанр: детский, комедия, спорт

Режиссер: Валентин Козачков, Альберт Осипов.
Актеры: Юля Корнева, Витя Снорков, Дима Сосновский, Саша Кривенко, Игорь Воробьев (II), Павел Ананьев, Петя Черкашин, Леван Шамилов, Наташа Белоус, Андрей Свидерский, Георгий Светлани, Наталья Фатеева, Юрий Дедович, Л. Бегун, Владимир Грамматиков, Дима Баранов, Саша Голиков, Миша Миронов, Стасик Светлов, Виталий Чижиков.

Описание : Сестра и брат - близнецы учатся в одном классе. Девочка Зина занимается в драматическом кружке и секции фигурного катания, а её брат Игнат, убедившись в собственной физической слабости, начинает играть в дворовой хоккейной команде «Тигры». Первые синяки и даже серьезные ушибы не останавливают упорного мальчика — и вскоре он становится смелым и сильным - одним из лучших игроков команды, впервые принявшей участие в соревнованиях на приз «Золотая шайба». Сюжет построен на том, что Зина во время соревнований по хоккею, выручая, заменяет своего брата и помогает команде выиграть.


Возраст: 6+ (зрителям, достигшим 6 лет)

Продолжительность: 01:17:07
Качество видео: DVDRip

Видео: XviD, 672x432, ~2200 Kbps
Аудио: AC3, 2 ch, 256 Kbps

Общее
Полное имя : Тигры на льду.1971.DVDRip.almikl.nnmclub.avi
Формат : AVI
Формат/Информация : Audio Video Interleave
Размер файла : 1,37 Гбайт
Продолжительность : 1 ч. 17 м.
Общий поток : 2538 Кбит/сек
Программа кодирования : VirtualDubMod 1.5.4.1 (build 2178/release)
Библиотека кодирования : VirtualDubMod build 2178/release

Видео
Идентификатор : 0
Формат : MPEG-4 Visual
Профиль формата : Advanced Simple@L5
Настройки формата : BVOP1 / Custom Matrix
Параметр BVOP формата : 1
Параметр QPel формата : Нет
Параметр GMC формата : Без точки перехода
Параметр матрицы формата : Выборочная
Идентификатор кодека : XVID
Идентификатор кодека/Подсказка : XviD
Продолжительность : 1 ч. 17 м.
Битрейт : 2276 Кбит/сек
Ширина : 672 пикселя
Высота : 432 пикселя
Соотношение сторон : 16:10
Частота кадров : 25,000 кадров/сек
Цветовое пространство : YUV
Субдискретизация насыщенности : 4:2:0
Битовая глубина : 8 бит
Тип развёртки : Прогрессивная
Метод сжатия : С потерями
Бит/(Пиксели*Кадры) : 0.314
Размер потока : 1,23 Гбайт (90%)
Библиотека кодирования : XviD 73

Аудио
Идентификатор : 1
Формат : AC-3
Формат/Информация : Audio Coding 3
Коммерческое название : Dolby Digital
Идентификатор кодека : 2000
Продолжительность : 1 ч. 17 м.
Вид битрейта : Постоянный
Битрейт : 256 Кбит/сек
Каналы : 2 канала
ChannelLayout : L R
Частота : 48,0 КГц
Частота кадров : 31,250 кадров/сек (1536 SPF)
Метод сжатия : С потерями
Размер потока : 141 Мбайт (10%)
Выравнивание : Разделение по промежуткам
Продолжительность промежутка : 96 мс. (2,40 видеокадра)
Время предзагрузки промежутка : 96 мс.
ServiceKind/String : Complete Main
Скриншоты:

Все одноименные релизы в Клубе

Время раздачи: 24/7 (до появления первых 3-5 скачавших)
Tigryi na l'du.1971.DVDRip.almikl.nnmclub.avi.torrent
 Торрент: Платиновая раздача  Зарегистрирован
 
Скачать


Примагнититься
 Зарегистрирован:   19 Сен 2019 12:35:48
 Размер:   1,37 GB  (
 Рейтинг:    (Голосов: 4)
 Поблагодарили:   27
 Проверка:   Оформление проверено модератором 19 Сен 2019 12:36:58
Как cкачать  ·  Как раздать  ·  Правильно оформить  ·  Поднять ратио!  
Показать сообщения:   
Начать новую тему   Ответить на тему    Торрент-трекер NNM-Club -> Видео -> Отечественные Фильмы для детей Часовой пояс: GMT + 3
Страница 1 из 1