Классический форум-трекер
canvas not supported
Нас вместе: 4 079 485

Тигры на льду (1971) DVDRip [H.264]


 
 
RSS
Начать новую тему   Ответить на тему    Торрент-трекер NNM-Club -> Видео -> Отечественные Фильмы для детей
Автор Сообщение
almikl ®
Куратор Детского.
Модератор Видео.
RG Всё лучшее - детям!
Uploader 500+
 
Стаж: 12 лет 4 мес.
Сообщений: 4758
Ratio: 340,53
Поблагодарили: 107542
100%
Откуда: Дааалекое Подмосковье
russia.gif
Тигры на льду (1971) DVDRip
Производство: СССР, Одесская киностудия
Жанр: детский, комедия, спорт

Режиссер: Валентин Козачков, Альберт Осипов.
Актеры: Юля Корнева, Витя Снорков, Дима Сосновский, Саша Кривенко, Игорь Воробьев (II), Павел Ананьев, Петя Черкашин, Леван Шамилов, Наташа Белоус, Андрей Свидерский, Георгий Светлани, Наталья Фатеева, Юрий Дедович, Л. Бегун, Владимир Грамматиков, Дима Баранов, Саша Голиков, Миша Миронов, Стасик Светлов, Виталий Чижиков.

Описание : Сестра и брат - близнецы учатся в одном классе. Девочка Зина занимается в драматическом кружке и секции фигурного катания, а её брат Игнат, убедившись в собственной физической слабости, начинает играть в дворовой хоккейной команде «Тигры». Первые синяки и даже серьезные ушибы не останавливают упорного мальчика — и вскоре он становится смелым и сильным - одним из лучших игроков команды, впервые принявшей участие в соревнованиях на приз «Золотая шайба». Сюжет построен на том, что Зина во время соревнований по хоккею, выручая, заменяет своего брата и помогает команде выиграть.


Возраст: 6+ (зрителям, достигшим 6 лет)

Продолжительность: 01:17:07
Качество видео: DVDRip

Видео: AVC\H.264, 696x428, ~2200 Kbps
Аудио: AC3, 2 ch, 256 Kbps

Общее
Уникальный идентификатор : 25458801161277775505337713768130284317 (0x13272FCEE0FB7B8F53957D1F88CE0B1D)
Полное имя : Тигры на льду.1971.DVDRip.h264.almikl.nnmclub.mkv
Формат : Matroska
Версия формата : Version 2
Размер файла : 1,35 Гбайт
Продолжительность : 1 ч. 17 м.
Общий поток : 2502 Кбит/сек
Дата кодирования : UTC 2019-08-12 13:58:34
Программа кодирования : mkvmerge v34.0.0 ('Sight and Seen') 64-bit
Библиотека кодирования : libebml v1.3.7 + libmatroska v1.5.0

Видео
Идентификатор : 1
Формат : AVC
Формат/Информация : Advanced Video Codec
Профиль формата : High@L4.1
Настройки формата : CABAC / 7 Ref Frames
Параметр CABAC формата : Да
Параметр RefFrames формата : 7 кадров
Идентификатор кодека : V_MPEG4/ISO/AVC
Продолжительность : 1 ч. 17 м.
Битрейт : 2244 Кбит/сек
Ширина : 696 пикселей
Высота : 428 пикселей
Соотношение сторон : 16:10
Режим частоты кадров : Постоянный
Частота кадров : 25,000 кадров/сек
Цветовое пространство : YUV
Субдискретизация насыщенности : 4:2:0
Битовая глубина : 8 бит
Тип развёртки : Прогрессивная
Бит/(Пиксели*Кадры) : 0.301
Размер потока : 1,21 Гбайт (90%)
Библиотека кодирования : x264 core 157 r2969 d4099dd
Настройки программы : cabac=1 / ref=7 / deblock=1:-2:-2 / analyse=0x3:0x133 / me=umh / subme=10 / psy=1 / psy_rd=1.00:0.25 / mixed_ref=1 / me_range=24 / chroma_me=1 / trellis=2 / 8x8dct=1 / cqm=0 / deadzone=6,6 / fast_pskip=0 / chroma_qp_offset=-4 / threads=6 / lookahead_threads=1 / sliced_threads=0 / nr=0 / decimate=0 / interlaced=0 / bluray_compat=0 / constrained_intra=0 / bframes=9 / b_pyramid=2 / b_adapt=2 / b_bias=0 / direct=1 / weightb=1 / open_gop=0 / weightp=2 / keyint=240 / keyint_min=23 / scenecut=40 / intra_refresh=0 / rc_lookahead=40 / rc=2pass / mbtree=1 / bitrate=2244 / ratetol=1.0 / qcomp=0.60 / qpmin=0 / qpmax=69 / qpstep=4 / cplxblur=20.0 / qblur=0.5 / vbv_maxrate=50000 / vbv_bufsize=62500 / nal_hrd=none / filler=0 / ip_ratio=1.10 / aq=3:0.80
Default : Да
Forced : Нет

Аудио
Идентификатор : 2
Формат : AC-3
Формат/Информация : Audio Coding 3
Коммерческое название : Dolby Digital
Идентификатор кодека : A_AC3
Продолжительность : 1 ч. 17 м.
Вид битрейта : Постоянный
Битрейт : 256 Кбит/сек
Каналы : 2 канала
ChannelLayout : L R
Частота : 48,0 КГц
Частота кадров : 31,250 кадров/сек (1536 SPF)
Метод сжатия : С потерями
Размер потока : 141 Мбайт (10%)
Язык : new
ServiceKind/String : Complete Main
Default : Да
Forced : Нет
Скриншоты:

Все одноименные релизы в Клубе

Время раздачи: 24/7 (до появления первых 3-5 скачавших)
Tigryi na l'du.1971.DVDRip.h264.almikl.nnmclub.mkv.torrent
 Торрент: Платиновая раздача  Зарегистрирован
 
Скачать


Примагнититься
 Зарегистрирован:   19 Сен 2019 12:43:26
 Размер:   1,35 GB  (
 Рейтинг:    (Голосов: 4)
 Поблагодарили:   37
 Проверка:   Оформление проверено модератором 19 Сен 2019 12:43:51
Как cкачать  ·  Как раздать  ·  Правильно оформить  ·  Поднять ратио!  
Показать сообщения:   
Начать новую тему   Ответить на тему    Торрент-трекер NNM-Club -> Видео -> Отечественные Фильмы для детей Часовой пояс: GMT + 3
Страница 1 из 1