Классический форум-трекер
canvas not supported
Нас вместе: 4 079 211

Тигры на льду (1971) DVDRemux


 
 
RSS
Начать новую тему   Ответить на тему    Торрент-трекер NNM-Club -> Видео -> Отечественные Фильмы для детей
Автор Сообщение
almikl ®
Куратор Детского.
Модератор Видео.
RG Всё лучшее - детям!
Uploader 500+
 
Стаж: 12 лет 4 мес.
Сообщений: 4758
Ratio: 339,929
Поблагодарили: 107506
100%
Откуда: Дааалекое Подмосковье
russia.gif
Тигры на льду (1971) DVDRemux
Производство: СССР, Одесская киностудия
Жанр: детский, комедия, спорт

Режиссер: Валентин Козачков, Альберт Осипов.
Актеры: Юля Корнева, Витя Снорков, Дима Сосновский, Саша Кривенко, Игорь Воробьев (II), Павел Ананьев, Петя Черкашин, Леван Шамилов, Наташа Белоус, Андрей Свидерский, Георгий Светлани, Наталья Фатеева, Юрий Дедович, Л. Бегун, Владимир Грамматиков, Дима Баранов, Саша Голиков, Миша Миронов, Стасик Светлов, Виталий Чижиков.

Описание :
Сестра и брат - близнецы учатся в одном классе. Девочка Зина занимается в драматическом кружке и секции фигурного катания, а её брат Игнат, убедившись в собственной физической слабости, начинает играть в дворовой хоккейной команде «Тигры». Первые синяки и даже серьезные ушибы не останавливают упорного мальчика — и вскоре он становится смелым и сильным - одним из лучших игроков команды, впервые принявшей участие в соревнованиях на приз «Золотая шайба». Сюжет построен на том, что Зина во время соревнований по хоккею, выручая, заменяет своего брата и помогает команде выиграть.


Возраст: 6+ (зрителям, достигшим 6 лет)

Продолжительность: 01:17:07
Качество видео: DVDRemux

Видео: MPEG-2, 720x576@768x576, ~6000 Kbps
Аудио: AC3, 2 ch, 256 Kbps

Общее
Уникальный идентификатор : 81617035745057154009698674099309696562 (0x3D66DE8B3056BB6D4FAA3E15CEE2D632)
Полное имя : Тигры на льду.1971.DVDRemux.almikl.nnmclub.mkv
Формат : Matroska
Версия формата : Version 2
Размер файла : 3,33 Гбайт
Продолжительность : 1 ч. 17 м.
Режим общего битрейта : Переменный
Общий поток : 6183 Кбит/сек
Дата кодирования : UTC 2019-08-12 09:53:58
Программа кодирования : MakeMKV v1.14.3 win(x64-release)
Библиотека кодирования : libmakemkv v1.14.3 (1.3.5/1.4.7) win(x64-release)

Видео
Идентификатор : 1
OriginalSourceMedium_ID/String : 224 (0xE0)
Формат : MPEG Video
Версия формата : Version 2
Профиль формата : Main@Main
Настройки формата : CustomMatrix / BVOP
Параметр BVOP формата : Да
Параметр матрицы формата : Выборочная
Параметр GOP формата : Variable
Структура изображения : Frame
Идентификатор кодека : V_MPEG2
Идентификатор кодека/Информация : MPEG 1 or 2 Video
Продолжительность : 1 ч. 17 м.
Вид битрейта : Переменный
Битрейт : 5921 Кбит/сек
Максимальный битрейт : 9500 Кбит/сек
Ширина : 720 пикселей
Высота : 576 пикселей
Соотношение сторон : 4:3
Режим частоты кадров : Постоянный
Частота кадров : 25,000 кадров/сек
Стандарт вещания : PAL
Цветовое пространство : YUV
Субдискретизация насыщенности : 4:2:0
Битовая глубина : 8 бит
Тип развёртки : Чересстрочная
Порядок развёртки : Верхнее поле первое
Метод сжатия : С потерями
Бит/(Пиксели*Кадры) : 0.571
Временной код первого кадра : 00:00:00:00
Оригинал временного кода : Group of pictures header
GOP, открыто/закрыто : Открыто
Размер потока : 3,19 Гбайт (96%)
Язык : English
Default : Нет
Forced : Нет
Носитель оригинала : DVD-Video

Аудио
Идентификатор : 2
OriginalSourceMedium_ID/String : 189 (0xBD)128 (0x80)
Формат : AC-3
Формат/Информация : Audio Coding 3
Коммерческое название : Dolby Digital
Идентификатор кодека : A_AC3
Продолжительность : 1 ч. 17 м.
Вид битрейта : Постоянный
Битрейт : 256 Кбит/сек
Каналы : 2 канала
ChannelLayout : L R
Частота : 48,0 КГц
Частота кадров : 31,250 кадров/сек (1536 SPF)
Метод сжатия : С потерями
Размер потока : 141 Мбайт (4%)
Заголовок : Stereo
Язык : English
ServiceKind/String : Complete Main
Default : Да
Forced : Нет
Носитель оригинала : DVD-Video

Меню
00:00:00.000 : en:Chapter 01
00:00:14.000 : en:Chapter 02
00:06:23.120 : en:Chapter 03
00:12:40.880 : en:Chapter 04
00:20:55.280 : en:Chapter 05
00:28:13.520 : en:Chapter 06
00:36:13.040 : en:Chapter 07
00:42:29.360 : en:Chapter 08
00:49:35.120 : en:Chapter 09
00:55:34.640 : en:Chapter 10
01:03:01.040 : en:Chapter 11
01:10:28.400 : en:Chapter 12
01:15:26.480 : en:Chapter 13
Скриншоты:

Все одноименные релизы в Клубе

Время раздачи: 24/7 (до появления первых 3-5 скачавших)
Tigryi na l'du.1971.DVDRemux.almikl.nnmclub.mkv.torrent
 Торрент: Платиновая раздача  Зарегистрирован
 
Скачать


Примагнититься
 Зарегистрирован:   19 Сен 2019 12:53:27
 Размер:   3,33 GB  (
 Рейтинг:   4,9 (Голосов: 11)
 Поблагодарили:   60
 Проверка:   Оформление проверено модератором 19 Сен 2019 12:54:19
Как cкачать  ·  Как раздать  ·  Правильно оформить  ·  Поднять ратио!  
Показать сообщения:   
Начать новую тему   Ответить на тему    Торрент-трекер NNM-Club -> Видео -> Отечественные Фильмы для детей Часовой пояс: GMT + 3
Страница 1 из 1