Классический форум-трекер
canvas not supported
Нас вместе: 4 079 286

Анна / Anna (2019) BDRip [1080p] ATV


 
 
RSS
Начать новую тему   Ответить на тему    Торрент-трекер NNM-Club -> Аудио и Видео -> Зарубежное видео HD для устройств Apple
Автор Сообщение
Весельчак У ®
Модератор Apple
Стаж: 5 лет 10 мес.
Сообщений: 3384
Ratio: 147,732
Поблагодарили: 111134
100%
Откуда: От Москвы недалеко...
ussr.gif
Анна / Anna (2019) BDRip [1080p] ATV«Никогда не делай оружие мишенью»
Производство: Франция, США / EuropaCorp, TF1 Films Production
Жанр: Боевик, Триллер

Режиссер: Люк Бессон
Продюсер: Люк Бессон, Gnama Baddy-Dega, Артемио Бенки
Актеры: Саша Лусс, Хелен Миррен, Люк Эванс, Киллиан Мёрфи, Лера Абова, Александр Петров, Никита Павленко, Анна Криппа, Алексей Маслодудов, Эрик Годон

Описание:
Москва, конец 1980-х. Скаут французского модельного агентства находит на Измайловском рынке подходящую ему по всем параметрам девушку Анну. Его не смущает, что потенциальная модель знает несколько языков, но торгует при этом матрёшками, и вот уже Анна летит в Париж и приступает к работе. Но её настоящая работа заключается не в позировании перед фотокамерами — хрупкая девушка работает на КГБ и должна убирать людей по приказу Москвы.


Возраст: 18+ (зрителям, достигшим 18 лет. запрещено для детей)
Рейтинг MPAA: R (лицам до 17 лет обязательно присутствие взрослого)
Дата мировой премьеры: 19 июня 2019
Дата российской премьеры: 11 июля 2019, «Централ Партнершип»

Продолжительность: 01:59:00
Качество видео: BDRip 1080р
Перевод: Профессиональный многоголосый, дублированный
Субтитры: Английские

Видео: H.264, 1920x804 (2.40:1), ~8100 kbps, 23.976 fps
Аудио#1: AAC, 2.0 ch, 230 Kbps - Русский DUB, iTunes
Аудио#2: AAC, 2.0 ch, 295 Kbps - Русский MVO, HDRezka Studio
Аудио#3: AAC, 2.0 ch, 230 Kbps - English Original
Аудио#4: AC-3, 6.0 ch, 640 Kbps - Русский DUB, iTunes
Аудио#5: AC-3, 6.0 ch, 640 Kbps - English, Original

Общее
Полное имя : /Volumes/HDD/Movies/NNMC/Anna.2019.BDRip.1080p.m4v
Формат : MPEG-4
Профиль формата : Base Media / Version 2
Идентификатор кодека : mp42 (isom/iso2/avc1/mp41)
Размер файла : 8,38 Гбайт
Продолжительность : 1 ч. 59 м.
Режим общего битрейта : Переменный
Общий поток : 10,1 Мбит/сек
Название фильма : Анна
Исполнитель : Luc Besson
Режиссёр : Luc Besson
Исполнитель : Саша Лусс / Хелен Миррен / Люк Эванс / Киллиан Мёрфи / Лера Абова / Александр Петров
Сценарист : Luc Besson
Продюсер : Luc Besson / Эрик Мэтис / Джейсон Клот
Студия-производитель : Canal+ [fr], EuropaCorp, OCS, TF1, TF1 Films Production, TMC
Жанр : Боевики и приключения
Тип содержимого : Short Film
Описание : История Анны, чья несравненная красота скрывает поразительную мощь и смертоносный талант опаснейшего наемного убийцы в мире.
Дата записи : UTC 2019-07-11 07:00:00
Дата кодирования : UTC 2019-09-21 07:15:24
Дата пометки : UTC 2019-09-21 19:41:57
Программа кодирования : HandBrake 1.2.2 2019022300
Авторское право : © 2019, ООО «Централ Партнершип Сейлз Хаус»
Обложка : Yes
LongDescription : История Анны, чья несравненная красота скрывает поразительную мощь и смертоносный талант опаснейшего наемного убийцы в мире.
AppleStoreCountry : Russia
AppleStoreCatalogID : 1472489233
ContentRating : ru-movie|18+|400|

Видео #1
Идентификатор : 1
Формат : AVC
Формат/Информация : Advanced Video Codec
Профиль формата : High@L4.1
Настройки формата : CABAC / 5 Ref Frames
Параметр CABAC формата : Да
Параметр ReFrames формата : 5 кадров
Идентификатор кодека : avc1
Идентификатор кодека/Информация : Advanced Video Coding
Продолжительность : 1 ч. 58 м.
Битрейт : 8100 Кбит/сек
Ширина : 1920 пикселей
Высота : 804 пикселя
Соотношение сторон : 2,40:1
Режим частоты кадров : Переменный
Частота кадров : 23,976 (24000/1001) кадра/сек
Минимальная частота кадров : 23,974 кадра/сек
Максимальная частота кадров : 23,981 кадра/сек
Цветовое пространство : YUV
Субдискретизация насыщенности : 4:2:0
Битовая глубина : 8 бит
Тип развёртки : Прогрессивная
Бит/(Пиксели*Кадры) : 0.219
Размер потока : 6,73 Гбайт (80%)
Библиотека кодирования : x264 core 157 r2935 545de2f
Настройки программы : cabac=1 / ref=5 / deblock=1:-1:-1 / analyse=0x3:0x133 / me=umh / subme=9 / psy=1 / psy_rd=1.00:0.15 / mixed_ref=1 / me_range=16 / chroma_me=1 / trellis=2 / 8x8dct=1 / cqm=0 / deadzone=21,11 / fast_pskip=1 / chroma_qp_offset=-3 / threads=6 / lookahead_threads=1 / sliced_threads=0 / nr=0 / decimate=1 / interlaced=0 / bluray_compat=0 / constrained_intra=0 / bframes=3 / b_pyramid=2 / b_adapt=2 / b_bias=0 / direct=3 / weightb=1 / open_gop=0 / weightp=2 / keyint=240 / keyint_min=24 / scenecut=40 / intra_refresh=0 / rc_lookahead=60 / rc=2pass / mbtree=1 / bitrate=8100 / ratetol=1.0 / qcomp=0.60 / qpmin=0 / qpmax=69 / qpstep=4 / cplxblur=20.0 / qblur=0.5 / vbv_maxrate=62500 / vbv_bufsize=78125 / nal_hrd=none / filler=0 / ip_ratio=1.40 / aq=1:1.00
Язык : English
Дата кодирования : UTC 2019-09-21 07:15:24
Дата пометки : UTC 2019-09-21 07:15:24
Цветовой диапазон : Limited
Основные цвета : BT.709
Характеристики трансфера : BT.709
Коэффициенты матрицы : BT.709
Menus : 8,9
Codec configuration box : avcC

Видео #2
Идентификатор : 9
Формат : JPEG
Идентификатор кодека : jpeg
Продолжительность : 1 ч. 58 м.
Вид битрейта : Переменный
Битрейт : 532 бит/сек
Ширина : 640 пикселей
Высота : 268 пикселей
Соотношение сторон : 2,40:1
Режим частоты кадров : Переменный
Частота кадров : 0,002 кадр/сек
Минимальная частота кадров : 0,002 кадр/сек
Максимальная частота кадров : 0,004 кадр/сек
Цветовое пространство : YUV
Субдискретизация насыщенности : 4:2:0
Битовая глубина : 8 бит
Метод сжатия : С потерями
Бит/(Пиксели*Кадры) : 1.551
Размер потока : 519 Кбайт (0%)
Язык : English
Default : Нет
Дата кодирования : UTC 2019-09-21 19:41:56
Дата пометки : UTC 2019-09-21 19:41:56
Menu For : 1
ColorSpace_ICC : RGB

Аудио #1
Идентификатор : 2
Формат : AAC LC
Формат/Информация : Advanced Audio Codec Low Complexity
Идентификатор кодека : mp4a-40-2
Продолжительность : 1 ч. 59 м.
Вид битрейта : Переменный
Битрейт : 230 Кбит/сек
Максимальный битрейт : 368 Кбит/сек
Каналы : 2 канала
Channel layout : L R
Частота : 48,0 КГц
Частота кадров : 46,875 кадров/сек (1024 SPF)
Метод сжатия : С потерями
Размер потока : 196 Мбайт (2%)
Язык : Russian
Default : Да
Alternate group : 1
Дата кодирования : UTC 2019-09-21 07:15:24
Дата пометки : UTC 2019-09-21 07:15:24
Fallback From : 5
Menus : 8
tagc : public.main-program-content

Аудио #2
Идентификатор : 3
Формат : AAC LC
Формат/Информация : Advanced Audio Codec Low Complexity
Идентификатор кодека : mp4a-40-2
Продолжительность : 1 ч. 58 м.
Вид битрейта : Переменный
Битрейт : 229 Кбит/сек
Максимальный битрейт : 371 Кбит/сек
Каналы : 2 канала
Channel layout : L R
Частота : 48,0 КГц
Частота кадров : 46,875 кадров/сек (1024 SPF)
Метод сжатия : С потерями
Размер потока : 195 Мбайт (2%)
Язык : Russian
Default : Нет
Alternate group : 1
Дата кодирования : UTC 2019-09-21 07:15:24
Дата пометки : UTC 2019-09-21 07:15:24
Menus : 8
tagc : public.auxiliary-content

Аудио #3
Идентификатор : 4
Формат : AAC LC
Формат/Информация : Advanced Audio Codec Low Complexity
Идентификатор кодека : mp4a-40-2
Продолжительность : 1 ч. 58 м.
Вид битрейта : Переменный
Битрейт : 230 Кбит/сек
Максимальный битрейт : 388 Кбит/сек
Каналы : 2 канала
Channel layout : L R
Частота : 48,0 КГц
Частота кадров : 46,875 кадров/сек (1024 SPF)
Метод сжатия : С потерями
Размер потока : 196 Мбайт (2%)
Язык : English
Default : Нет
Alternate group : 1
Дата кодирования : UTC 2019-09-21 07:15:24
Дата пометки : UTC 2019-09-21 07:15:24
Fallback From : 6
Menus : 8
tagc : public.main-program-content

Аудио #4
Идентификатор : 5
Формат : AC-3
Формат/Информация : Audio Coding 3
Коммерческое название : Dolby Digital
Идентификатор кодека : ac-3
Продолжительность : 1 ч. 59 м.
Вид битрейта : Постоянный
Битрейт : 640 Кбит/сек
Каналы : 6 каналов
Channel layout : L R C LFE Ls Rs
Частота : 48,0 КГц
Частота кадров : 31,250 кадров/сек (1536 SPF)
Битовая глубина : 16 бит
Метод сжатия : С потерями
Размер потока : 545 Мбайт (6%)
Язык : Russian
Service kind : Complete Main
Default : Inherited From: 2
Alternate group : 1
Дата кодирования : UTC 2019-09-21 07:15:24
Дата пометки : UTC 2019-09-21 07:15:24
Fallback To : 2
tagc : public.main-program-content

Аудио #5
Идентификатор : 6
Формат : AC-3
Формат/Информация : Audio Coding 3
Коммерческое название : Dolby Digital
Идентификатор кодека : ac-3
Продолжительность : 1 ч. 58 м.
Вид битрейта : Постоянный
Битрейт : 640 Кбит/сек
Каналы : 6 каналов
Channel layout : L R C LFE Ls Rs
Частота : 48,0 КГц
Частота кадров : 31,250 кадров/сек (1536 SPF)
Битовая глубина : 16 бит
Метод сжатия : С потерями
Размер потока : 545 Мбайт (6%)
Язык : English
Service kind : Complete Main
Default : Нет
Alternate group : 1
Дата кодирования : UTC 2019-09-21 07:15:24
Дата пометки : UTC 2019-09-21 07:15:24
Fallback To : 4
tagc : public.main-program-content

Текст
Идентификатор : 7
Формат : Timed Text
Режим смешивания : sbtl
Идентификатор кодека : tx3g
Продолжительность : 1 ч. 53 м.
Вид битрейта : Переменный
Битрейт : 55 бит/сек
Размер потока : 45,3 Кбайт (0%)
Язык : English
Default : Да
Forced : Нет
Alternate group : 2
Дата кодирования : UTC 2019-09-21 07:15:24
Дата пометки : UTC 2019-09-21 07:15:24
Menus : 8
tagc : public.main-program-content

Меню
Идентификатор : 8
Идентификатор кодека : text
Продолжительность : 1 ч. 58 м.
Язык : English
Дата кодирования : UTC 2019-09-21 07:15:24
Дата пометки : UTC 2019-09-21 07:15:24
Вид битрейта : CBR
Menu For : 1,2,3,4,7
00:00:00.000 : 00:00:00.000
00:06:14.291 : 00:06:14.291
00:16:42.293 : 00:16:42.209
00:21:09.185 : 00:21:09.185
00:31:16.792 : 00:31:16.708
00:35:25.832 : 00:35:25.832
00:45:57.338 : 00:45:57.338
00:53:43.262 : 00:53:43.262
01:00:52.732 : 01:00:52.732
01:08:39.907 : 01:08:39.907
01:14:24.085 : 01:14:24.084
01:24:15.217 : 01:24:15.133
01:28:36.520 : 01:28:36.519
01:36:36.582 : 01:36:36.582
01:46:36.390 : 01:46:36.390
01:51:04.783 : 01:51:04.783
Вид битрейта : Постоянный

Name: Анна
Artist: Luc Besson
Media Kind: Movie
HD Video: 1080p
Genre: Боевики и приключения
Release Date: 2019-07-11T07:00:00Z
Description: История Анны, чья несравненная красота скрывает поразительную мощь и смертоносный талант опаснейшего наемного убийцы в мире.
Long Description: История Анны, чья несравненная красота скрывает поразительную мощь и смертоносный талант опаснейшего наемного убийцы в мире.
Rating: ru-movie|18+|400|
Studio: Canal+ [fr], EuropaCorp, OCS, TF1, TF1 Films Production, TMC
Cast: Саша Лусс, Хелен Миррен, Люк Эванс, Киллиан Мёрфи, Лера Абова, Александр Петров
Director: Luc Besson
Producers: Luc Besson, Эрик Мэтис, Джейсон Клот
Screenwriters: Luc Besson
Copyright: © 2019, ООО «Централ Партнершип Сейлз Хаус»
Encoding Tool: HandBrake 1.2.2 2019022300
content ID: 1472489233
iTunes Country: 143469


x264 [info]: frame I:2045 Avg QP:14.21 size:182325
x264 [info]: frame P:47919 Avg QP:16.64 size: 71007
x264 [info]: frame B:121205 Avg QP:17.59 size: 28462
x264 [info]: consecutive B-frames: 2.3% 3.3% 20.0% 74.4%
x264 [info]: mb I I16..4: 8.3% 81.1% 10.6%
x264 [info]: mb P I16..4: 2.8% 20.7% 1.6% P16..4: 39.2% 15.8% 10.4% 0.4% 0.2% skip: 9.0%
x264 [info]: mb B I16..4: 0.6% 3.7% 0.3% B16..8: 42.0% 10.9% 2.1% direct: 8.8% skip:31.7% L0:47.9% L1:41.1% BI:11.1%
x264 [info]: 8x8 transform intra:82.2% inter:54.0%
x264 [info]: direct mvs spatial:98.6% temporal:1.4%
x264 [info]: coded y,uvDC,uvAC intra: 80.7% 84.2% 67.3% inter: 28.7% 31.4% 6.7%
x264 [info]: i16 v,h,dc,p: 36% 16% 12% 36%
x264 [info]: i8 v,h,dc,ddl,ddr,vr,hd,vl,hu: 15% 10% 19% 8% 9% 10% 8% 10% 10%
x264 [info]: i4 v,h,dc,ddl,ddr,vr,hd,vl,hu: 32% 11% 7% 6% 10% 11% 9% 7% 7%
x264 [info]: i8c dc,h,v,p: 48% 20% 19% 12%
x264 [info]: Weighted P-Frames: Y:2.8% UV:1.4%
x264 [info]: ref P L0: 47.7% 9.0% 23.7% 11.8% 7.6% 0.1% 0.0%
x264 [info]: ref B L0: 65.6% 23.0% 8.7% 2.7%
x264 [info]: ref B L1: 93.2% 6.8%
x264 [info]: kb/s:8096.44
Скриншоты:


Все одноименные релизы в Клубе
Время раздачи: 24/7 (до появления первых 3-5 скачавших)

Релиз подготовлен для просмотра на Apple TV, iPad, iPhone, iPod Touch.
Для просмотра данного релиза на компьютере с ОС Windows рекомендуется использовать VLC media player
[NNMClub.to]_Anna.2019.BDRip.1080p.m4v.torrent
 Торрент:   Зарегистрирован
 
Зарегистрируйтесь и скачайте торрент!
84,1 KB

Примагнититься
 Зарегистрирован:   21 Сен 2019 23:41:22
 Размер:   8,38 GB  (
 Рейтинг:    (Голосов: 7)
 Поблагодарили:   40
 Проверка:   Оформление проверено модератором 22 Сен 2019 00:20:49
Как cкачать  ·  Как раздать  ·  Правильно оформить  ·  Поднять ратио!  

_________________
«Всё против нас, только ветер навстречу…».
🍏Apple iMac 21.5 (mid 2011) / Intel Core i5 2.7 GHz / AMD Radeon HD 6770M 512 Mb / 12GB DDR3 / Apple Trackpad, Apple Keyboard / macOS High Sierra 10.13.6 (17G8030)
SergPuhov
Стаж: 11 мес.
Сообщений: 221
Ratio: 4,249
100%
судя по рейтингам очередная Никита не взлетела
Показать сообщения:   
Начать новую тему   Ответить на тему    Торрент-трекер NNM-Club -> Аудио и Видео -> Зарубежное видео HD для устройств Apple Часовой пояс: GMT + 3
Страница 1 из 1