Классический форум-трекер
canvas not supported
Нас вместе: 4 079 081

Вельзевул / Belzebuth (2018) BDRip [1080p] ATV


 
 
RSS
Начать новую тему   Ответить на тему    Торрент-трекер NNM-Club -> Аудио и Видео -> Зарубежное видео HD для устройств Apple
Автор Сообщение
Весельчак У ®
Модератор Apple

Online
Стаж: 5 лет 10 мес.
Сообщений: 3369
Ratio: 147,723
Поблагодарили: 110942
100%
Откуда: От Москвы недалеко...
ussr.gif
Вельзевул / Belzebuth (2018) BDRip [1080p] ATV
Производство: Мексика / Fondo de Inversión y Estímulos al Cine, Pastorela Peliculas, Universidad Autónoma de Baja California
Жанр: Ужасы

Режиссер: Эмилио Портес
Продюсер: Родриго Эрранс, Jaime Baksht, Стефани Бошеф

Актеры: Тобин Белл, Хоакин Косио, Тейт Эллингтон, Джованна Сакариас, Аида Лопес, Норма Анхелика, Юнуэн Пардо, Хосе Сефами, Аурора Хиль, Энок Леаньо

Описание:
Расследование серии шокирующих убийств приводит к священнику, отлученному от церкви за сатанинские ритуалы. Он и его приспешники стремятся приблизить апокалипсис, чтобы антихрист явился в человеческий мир и беспредельно властвовал. Главному герою придется выйти на тропу войны с настоящим злом.


Возраст: 18+ (зрителям, достигшим 18 лет. запрещено для детей)
Дата мировой премьеры: 14 октября 2017
Дата российской премьеры: 1 августа 2019, «Кинологистика»

Продолжительность: 01:53:45
Качество видео: BDRip 1080р
Перевод: Дублированный (iTunes)
Субтитры: Английские (вшитые, отключаемые)

Видео: H.264, 1920x800 (2.40:1), ~9302 kbps, 23.976 fps
Аудио#1: AAC, 2.0 ch, 197 Kbps - Русский DUB, iTunes
Аудио#2: AAC, 2.0 ch, 197 Kbps - Spanish, Original
Аудио#3: AC3, 6.0 ch, 384 Kbps - Русский DUB, iTunes
Аудио#4: AC3, 6.0 ch, 384 Kbps - Spanish, Original

Общее
Полное имя : /Volumes/HDD/Movies/NNMC/Belzebuth.2018.BDRip.1080p..m4v
Формат : MPEG-4
Идентификатор кодека : M4V (M4V /M4A /mp42/isom)
Размер файла : 8,32 Гбайт
Продолжительность : 1 ч. 53 м.
Режим общего битрейта : Переменный
Общий поток : 10,5 Мбит/сек
Название фильма : Вельзевул
Исполнитель : Эмилио Портес
Режиссёр : Эмилио Портес
Исполнитель : Тобин Белл / Хоакин Косио / Тейт Эллингтон / Джованна Сакариас / Аида Лопес
Сценарист : Луис Карлос Фуэнтес
Продюсер : Родриго Эрранс / Стефани Бошеф
Студия-производитель : Fondo de Inversión y Estímulos al Cine, Pastorela Peliculas
Жанр : Ужасы
Тип содержимого : Short Film
Описание : Расследование серии шокирующих убийств приводит к священнику, отлученному от церкви за сатанинские ритуалы. Он и его приспешники стремятся приблизить апокалипсис, чтобы антихрист явился в человеческий мир и беспредельно властвовал. Главному герою придется выйти на тропу войны с настоящим злом.
Дата записи : UTC 2019-08-01 07:00:00
Дата кодирования : UTC 2019-09-23 05:54:03
Дата пометки : UTC 2019-09-23 05:58:36
Авторское право : © 2019 Кинологистика
Обложка : Yes
LongDescription : Расследование серии шокирующих убийств приводит к священнику, отлученному от церкви за сатанинские ритуалы. Он и его приспешники стремятся приблизить апокалипсис, чтобы антихрист явился в человеческий мир и беспредельно властвовал. Главному герою придется выйти на тропу войны с настоящим злом.
AppleStoreCountry : Russia
AppleStoreCatalogID : 1476785103
ContentRating : ru-movie|18+|400|

Видео #1
Идентификатор : 1
Формат : AVC
Формат/Информация : Advanced Video Codec
Профиль формата : High@L4.1
Настройки формата : CABAC / 5 Ref Frames
Параметр CABAC формата : Да
Параметр ReFrames формата : 5 кадров
Идентификатор кодека : avc1
Идентификатор кодека/Информация : Advanced Video Coding
Продолжительность : 1 ч. 53 м.
Битрейт : 9302 Кбит/сек
Ширина : 1920 пикселей
Высота : 800 пикселей
Соотношение сторон : 2,40:1
Режим частоты кадров : Переменный
Частота кадров : 23,976 (24000/1001) кадра/сек
Минимальная частота кадров : 23,810 кадра/сек
Максимальная частота кадров : 24,390 кадра/сек
Цветовое пространство : YUV
Субдискретизация насыщенности : 4:2:0
Битовая глубина : 8 бит
Тип развёртки : Прогрессивная
Бит/(Пиксели*Кадры) : 0.253
Размер потока : 7,39 Гбайт (89%)
Библиотека кодирования : x264 core 157 r2935 545de2f
Настройки программы : cabac=1 / ref=5 / deblock=1:0:0 / analyse=0x3:0x133 / me=umh / subme=10 / psy=1 / psy_rd=1.00:0.00 / mixed_ref=1 / me_range=24 / chroma_me=1 / trellis=2 / 8x8dct=1 / cqm=0 / deadzone=21,11 / fast_pskip=1 / chroma_qp_offset=-2 / threads=3 / lookahead_threads=1 / sliced_threads=0 / nr=0 / decimate=1 / interlaced=0 / bluray_compat=0 / constrained_intra=0 / bframes=8 / b_pyramid=2 / b_adapt=2 / b_bias=0 / direct=3 / weightb=1 / open_gop=0 / weightp=2 / keyint=240 / keyint_min=23 / scenecut=40 / intra_refresh=0 / rc_lookahead=60 / rc=2pass / mbtree=1 / bitrate=9302 / ratetol=1.0 / qcomp=0.60 / qpmin=0 / qpmax=69 / qpstep=4 / cplxblur=20.0 / qblur=0.5 / vbv_maxrate=62500 / vbv_bufsize=78125 / nal_hrd=none / filler=0 / ip_ratio=1.40 / aq=1:1.00
Язык : Spanish
Дата кодирования : UTC 2019-09-23 05:54:03
Дата пометки : UTC 2019-09-23 05:58:09
Menus : 7,8
Codec configuration box : avcC

Видео #2
Идентификатор : 8
Формат : JPEG
Идентификатор кодека : jpeg
Продолжительность : 1 ч. 53 м.
Вид битрейта : Переменный
Битрейт : 618 бит/сек
Ширина : 640 пикселей
Высота : 266 пикселей
Соотношение сторон : 2,40:1
Режим частоты кадров : Переменный
Частота кадров : 0,003 кадр/сек
Минимальная частота кадров : 0,001 кадр/сек
Максимальная частота кадров : 0,009 кадр/сек
Цветовое пространство : YUV
Субдискретизация насыщенности : 4:2:0
Битовая глубина : 8 бит
Метод сжатия : С потерями
Бит/(Пиксели*Кадры) : 1.210
Размер потока : 503 Кбайт (0%)
Язык : Spanish
Default : Нет
Дата кодирования : UTC 2019-09-23 05:58:35
Дата пометки : UTC 2019-09-23 05:58:36
Menu For : 1
ColorSpace_ICC : RGB

Аудио #1
Идентификатор : 2
Формат : AAC LC
Формат/Информация : Advanced Audio Codec Low Complexity
Идентификатор кодека : mp4a-40-2
Продолжительность : 1 ч. 53 м.
Вид битрейта : Переменный
Битрейт : 197 Кбит/сек
Максимальный битрейт : 298 Кбит/сек
Каналы : 2 канала
Channel layout : L R
Частота : 48,0 КГц
Частота кадров : 46,875 кадров/сек (1024 SPF)
Метод сжатия : С потерями
Размер потока : 160 Мбайт (2%)
Язык : Russian
Default : Да
Alternate group : 1
Дата кодирования : UTC 2019-09-23 05:54:03
Дата пометки : UTC 2019-09-23 05:58:10
Fallback From : 4
tagc : public.main-program-content

Аудио #2
Идентификатор : 3
Формат : AAC LC
Формат/Информация : Advanced Audio Codec Low Complexity
Идентификатор кодека : mp4a-40-2
Продолжительность : 1 ч. 53 м.
Вид битрейта : Переменный
Битрейт : 197 Кбит/сек
Максимальный битрейт : 259 Кбит/сек
Каналы : 2 канала
Channel layout : L R
Частота : 48,0 КГц
Частота кадров : 46,875 кадров/сек (1024 SPF)
Метод сжатия : С потерями
Размер потока : 160 Мбайт (2%)
Язык : Spanish
Default : Нет
Alternate group : 1
Дата кодирования : UTC 2019-09-23 05:54:03
Дата пометки : UTC 2019-09-23 05:58:09
Fallback From : 5
tagc : public.main-program-content

Аудио #3
Идентификатор : 4
Формат : AC-3
Формат/Информация : Audio Coding 3
Коммерческое название : Dolby Digital
Идентификатор кодека : ac-3
Продолжительность : 1 ч. 53 м.
Вид битрейта : Постоянный
Битрейт : 384 Кбит/сек
Каналы : 6 каналов
Channel layout : L R C LFE Ls Rs
Частота : 48,0 КГц
Частота кадров : 31,250 кадров/сек (1536 SPF)
Битовая глубина : 16 бит
Метод сжатия : С потерями
Размер потока : 312 Мбайт (4%)
Язык : Russian
Service kind : Complete Main
Default : Inherited From: 2
Alternate group : 1
Дата кодирования : UTC 2019-09-23 05:54:03
Дата пометки : UTC 2019-09-23 05:58:09
Fallback To : 2
tagc : public.main-program-content

Аудио #4
Идентификатор : 5
Формат : AC-3
Формат/Информация : Audio Coding 3
Коммерческое название : Dolby Digital
Идентификатор кодека : ac-3
Продолжительность : 1 ч. 53 м.
Вид битрейта : Постоянный
Битрейт : 384 Кбит/сек
Каналы : 6 каналов
Channel layout : L R C LFE Ls Rs
Частота : 48,0 КГц
Частота кадров : 31,250 кадров/сек (1536 SPF)
Битовая глубина : 16 бит
Метод сжатия : С потерями
Размер потока : 312 Мбайт (4%)
Язык : Spanish
Service kind : Complete Main
Default : Нет
Alternate group : 1
Дата кодирования : UTC 2019-09-23 05:54:03
Дата пометки : UTC 2019-09-23 05:58:09
Fallback To : 3
tagc : public.main-program-content

Текст
Идентификатор : 6
Формат : Timed Text
Режим смешивания : sbtl
Идентификатор кодека : tx3g
Продолжительность : 1 ч. 42 м.
Вид битрейта : Переменный
Битрейт : 18 бит/сек
Размер потока : 13,3 Кбайт (0%)
Язык : English
Default : Да
Forced : Нет
Alternate group : 2
Дата кодирования : UTC 2019-09-23 05:54:03
Дата пометки : UTC 2019-09-23 05:58:09
tagc : public.main-program-content

Меню
Идентификатор : 7
Идентификатор кодека : text
Продолжительность : 1 ч. 53 м.
Язык : English
Дата кодирования : UTC 2019-09-23 05:58:10
Дата пометки : UTC 2019-09-23 05:58:10
Вид битрейта : CBR
Menu For : 1
00:00:00.000 : Capítulo 01
00:01:54.906 : Capítulo 02
00:07:27.780 : Capítulo 03
00:10:33.132 : Capítulo 04
00:17:39.933 : Capítulo 05
00:19:52.441 : Capítulo 06
00:23:51.012 : Capítulo 07
00:30:03.927 : Capítulo 08
00:34:29.692 : Capítulo 09
00:40:29.677 : Capítulo 10
00:45:35.816 : Capítulo 11
00:48:21.481 : Capítulo 12
01:01:33.189 : Capítulo 13
01:07:38.763 : Capítulo 14
01:16:27.666 : Capítulo 15
01:24:27.062 : Capítulo 16
01:28:47.613 : Capítulo 17
01:36:13.726 : Capítulo 18
01:41:51.688 : Capítulo 19
01:45:15.517 : Capítulo 20
Вид битрейта : Постоянный


Name: Вельзевул
Artist: Эмилио Портес
Media Kind: Movie
HD Video: 1080p
Genre: Ужасы
Release Date: 2019-08-01T07:00:00Z
Description: Расследование серии шокирующих убийств приводит к священнику, отлученному от церкви за сатанинские ритуалы. Он и его приспешники стремятся приблизить апокалипсис, чтобы антихрист явился в человеческий мир и беспредельно властвовал. Главному герою придется выйти на тропу войны с настоящим злом.
Long Description: Расследование серии шокирующих убийств приводит к священнику, отлученному от церкви за сатанинские ритуалы. Он и его приспешники стремятся приблизить апокалипсис, чтобы антихрист явился в человеческий мир и беспредельно властвовал. Главному герою придется выйти на тропу войны с настоящим злом.
Rating: ru-movie|18+|400|
Studio: Fondo de Inversión y Estímulos al Cine, Pastorela Peliculas
Cast: Тобин Белл, Хоакин Косио, Тейт Эллингтон, Джованна Сакариас, Аида Лопес
Director: Эмилио Портес
Producers: Родриго Эрранс, Стефани Бошеф
Screenwriters: Луис Карлос Фуэнтес
Copyright: © 2019 Кинологистика
content ID: 1476785103
iTunes Country: 143469

Скриншоты:


Все одноименные релизы в Клубе
Время раздачи: 24/7 (до появления первых 3-5 скачавших)

Релиз подготовлен для просмотра на Apple TV, iPad, iPhone, iPod Touch.
Для просмотра данного релиза на компьютере с ОС Windows рекомендуется использовать VLC media player
[NNMClub.to]_Belzebuth.2018.BDRip.1080p..m4v.torrent
 Торрент:   Зарегистрирован
 
Зарегистрируйтесь и скачайте торрент!
83,4 KB

Примагнититься
 Зарегистрирован:   23 Сен 2019 09:12:55
 Размер:   8,32 GB  (
 Рейтинг:   4,9 (Голосов: 11)
 Поблагодарили:   45
 Проверка:   Оформление проверено модератором 23 Сен 2019 10:56:17
Как cкачать  ·  Как раздать  ·  Правильно оформить  ·  Поднять ратио!  

_________________
«Всё против нас, только ветер навстречу…».
🍏Apple iMac 21.5 (mid 2011) / Intel Core i5 2.7 GHz / AMD Radeon HD 6770M 512 Mb / 12GB DDR3 / Apple Trackpad, Apple Keyboard / macOS High Sierra 10.13.6 (17G8030)
vedomstvo
Стаж: 9 лет 4 мес.
Сообщений: 16
Ratio: 1,392
8.48%
можно фильмы и игры отдельно, программы отдельно?
Весельчак У ®
Модератор Apple

Online
Стаж: 5 лет 10 мес.
Сообщений: 3369
Ratio: 147,723
Поблагодарили: 110942
100%
Откуда: От Москвы недалеко...
ussr.gif
vedomstvo писал(а): Перейти к сообщению
можно фильмы и игры отдельно, программы отдельно?

В этом разделе собрано все для ‹любителей свежих яблочек›, которые давно уже сумели разобраться где игры, где приложения, а где фильмы.
Делить его на еще какие-то подразделы нет никакого смысла.

_________________
«Всё против нас, только ветер навстречу…».
🍏Apple iMac 21.5 (mid 2011) / Intel Core i5 2.7 GHz / AMD Radeon HD 6770M 512 Mb / 12GB DDR3 / Apple Trackpad, Apple Keyboard / macOS High Sierra 10.13.6 (17G8030)
snusmumrikzzz
Стаж: 6 лет 10 мес.
Сообщений: 5
Ratio: 1,184
0%
Весельчак У писал(а): Перейти к сообщению

В этом разделе собрано все для ‹любителей свежих яблочек›, которые давно уже сумели разобраться где игры, где приложения, а где фильмы.
Делить его на еще какие-то подразделы нет никакого смысла.


Я один из таких "любителей", но честно говоря тоже считаю текущий вариант не очень удобным. захожу исключительно за программами. Для ios уже есть всякие приложения и сервисы позволяющие без проблем смотреть любые видео.
Показать сообщения:   
Начать новую тему   Ответить на тему    Торрент-трекер NNM-Club -> Аудио и Видео -> Зарубежное видео HD для устройств Apple Часовой пояс: GMT + 3
Страница 1 из 1