Классический форум-трекер
canvas not supported
Нас вместе: 4 079 204

Золотые яйца / Huevos de oro (1993) BDRip [1080p] ATV


 
 
RSS
Начать новую тему   Ответить на тему    Торрент-трекер NNM-Club -> Аудио и Видео -> Зарубежное видео HD для устройств Apple
Автор Сообщение
Весельчак У ®
Модератор Apple
Стаж: 5 лет 10 мес.
Сообщений: 3381
Ratio: 147,729
Поблагодарили: 111094
100%
Откуда: От Москвы недалеко...
ussr.gif
Золотые яйца / Huevos de oro (1993) BDRip [1080p] ATV
Производство: Испания, Италия, Франция / Antena 3 Televisión, Filmauro, Hugo Films S.A.
Жанр: Драма, Комедия

Режиссер: Бигас Луна
Продюсер: Аурелио Де Лаурентис, Ксавье Желен, Андрес Висенте Гомес
Актеры: Хавьер Бардем, Мария де Медейруш, Марибель Верду, Элиза Товати, Рэкуэл Бьянка, Алессандро Гассман, Бенисио Дель Торо, Франческо Доминедо, Альберт Видаль, Анхель де Андрес Лопе

Описание:
Он жесток, обидчив и очень тщеславен. Девиз его жизни — если у меня два яйца, то почему не может быть двух машин «Порше», двух золотых «Ролексов» и двух умопомрачительных женщин. Никто не может стоять у него на пути, ничто не помешает его планам. Он добьется всего и неважно как. Но что дальше?


Возраст: 18+ (зрителям, достигшим 18 лет. запрещено для детей)

Продолжительность: 01:32:35
Качество видео: BDRip 1080р
Перевод: Профессиональный двухголосый, авторский одноголосый
Субтитры: Английские, Испанские (вшитые, отключаемые)

Видео: H.264, 1920x816 (2.35:1), ~14 Mbps, 23.976 fps
Аудио#1: AAC, 2.0 ch, 197 Kbps - Русский DVO, Ульпаней Эльром
Аудио#2: AAC, 2.0 ch, 197 Kbps - Русский AVO, В. Огородников aka Лектор
Аудио#3: AAC, 2.0 ch, 197 Kbps - Spanish, Original

Общее
Полное имя : /Volumes/HDD/Movies/NNMC/Huevos.de.oro.1993.BDRip.1080p.m4v
Формат : MPEG-4
Идентификатор кодека : M4V (M4V /M4A /mp42/isom)
Размер файла : 9,44 Гбайт
Продолжительность : 1 ч. 32 м.
Режим общего битрейта : Переменный
Общий поток : 14,6 Мбит/сек
Название фильма : Золотые яйца
Исполнитель : Bigas Luna
Режиссёр : Bigas Luna
Исполнитель : Javier Bardem / Maria de Medeiros / Maribel Verdú / Elisa Tovati / Raquel Bianca / Alessandro Gassman / Benicio del Toro / Francesco Dominedò / Ángel de Andrés López
Сценарист : Bigas Luna / Cuca Canals
Исполнительный продюсер : Andrés Vicente Gómez
Студия-производитель : Filmauro, Hugo Films S.A., Lumière, Ovídeo TV S.A., Lolafilms
Жанр : комедия, драма
Тип содержимого : Short Film
Описание : Амбициозный инженер использует свое обаяние, чтобы получить деньги на реализацию проекта мечты.
Дата записи : UTC 1993-09-24 00:00:00
Дата кодирования : UTC 2019-09-24 13:25:35
Дата пометки : UTC 2019-09-24 13:28:43
Обложка : Yes
LongDescription : Амбициозный инженер использует свое обаяние, чтобы получить деньги на реализацию проекта мечты.

Видео #1
Идентификатор : 1
Формат : AVC
Формат/Информация : Advanced Video Codec
Профиль формата : High@L4.1
Настройки формата : CABAC / 4 Ref Frames
Параметр CABAC формата : Да
Параметр ReFrames формата : 4 кадра
Идентификатор кодека : avc1
Идентификатор кодека/Информация : Advanced Video Coding
Продолжительность : 1 ч. 32 м.
Битрейт : 14,0 Мбит/сек
Ширина : 1920 пикселей
Высота : 816 пикселей
Соотношение сторон : 2,35:1
Режим частоты кадров : Переменный
Частота кадров : 24,000 кадра/сек
Минимальная частота кадров : 23,810 кадра/сек
Максимальная частота кадров : 24,390 кадра/сек
Цветовое пространство : YUV
Субдискретизация насыщенности : 4:2:0
Битовая глубина : 8 бит
Тип развёртки : Прогрессивная
Бит/(Пиксели*Кадры) : 0.372
Размер потока : 9,05 Гбайт (96%)
Библиотека кодирования : x264 core 146 r2538 121396c
Настройки программы : cabac=1 / ref=4 / deblock=1:-2:-2 / analyse=0x3:0x133 / me=umh / subme=11 / psy=1 / psy_rd=1.00:0.00 / mixed_ref=1 / me_range=32 / chroma_me=1 / trellis=2 / 8x8dct=1 / cqm=0 / deadzone=21,11 / fast_pskip=0 / chroma_qp_offset=-2 / threads=12 / lookahead_threads=2 / sliced_threads=0 / nr=0 / decimate=0 / interlaced=0 / bluray_compat=0 / constrained_intra=0 / bframes=14 / b_pyramid=2 / b_adapt=2 / b_bias=0 / direct=3 / weightb=1 / open_gop=0 / weightp=2 / keyint=240 / keyint_min=24 / scenecut=40 / intra_refresh=0 / rc=2pass / mbtree=0 / bitrate=14000 / ratetol=1.0 / qcomp=0.60 / qpmin=0 / qpmax=69 / qpstep=4 / cplxblur=20.0 / qblur=0.5 / ip_ratio=1.40 / pb_ratio=1.30 / aq=3:0.80
Язык : Spanish
Дата кодирования : UTC 2019-09-24 13:25:35
Дата пометки : UTC 2019-09-24 13:28:28
Menus : 7,8
Codec configuration box : avcC

Видео #2
Идентификатор : 8
Формат : JPEG
Идентификатор кодека : jpeg
Продолжительность : 1 ч. 32 м.
Вид битрейта : Переменный
Битрейт : 654 бит/сек
Ширина : 640 пикселей
Высота : 272 пикселя
Соотношение сторон : 2,35:1
Режим частоты кадров : Переменный
Частота кадров : 0,002 кадр/сек
Минимальная частота кадров : 0,002 кадр/сек
Максимальная частота кадров : 0,005 кадр/сек
Цветовое пространство : YUV
Субдискретизация насыщенности : 4:2:0
Битовая глубина : 8 бит
Метод сжатия : С потерями
Бит/(Пиксели*Кадры) : 1.878
Размер потока : 439 Кбайт (0%)
Язык : Spanish
Default : Нет
Дата кодирования : UTC 2019-09-24 13:28:42
Дата пометки : UTC 2019-09-24 13:28:42
Menu For : 1
ColorSpace_ICC : RGB

Аудио #1
Идентификатор : 2
Формат : AAC LC
Формат/Информация : Advanced Audio Codec Low Complexity
Идентификатор кодека : mp4a-40-2
Продолжительность : 1 ч. 32 м.
Вид битрейта : Переменный
Битрейт : 197 Кбит/сек
Максимальный битрейт : 239 Кбит/сек
Каналы : 2 канала
Channel layout : L R
Частота : 48,0 КГц
Частота кадров : 46,875 кадров/сек (1024 SPF)
Метод сжатия : С потерями
Размер потока : 131 Мбайт (1%)
Язык : Russian
Default : Да
Alternate group : 1
Дата кодирования : UTC 2019-09-24 13:25:35
Дата пометки : UTC 2019-09-24 13:28:28
tagc : public.main-program-content

Аудио #2
Идентификатор : 3
Формат : AAC LC
Формат/Информация : Advanced Audio Codec Low Complexity
Идентификатор кодека : mp4a-40-2
Продолжительность : 1 ч. 32 м.
Вид битрейта : Переменный
Битрейт : 197 Кбит/сек
Максимальный битрейт : 273 Кбит/сек
Каналы : 2 канала
Channel layout : L R
Частота : 48,0 КГц
Частота кадров : 46,875 кадров/сек (1024 SPF)
Метод сжатия : С потерями
Размер потока : 131 Мбайт (1%)
Язык : Russian
Default : Нет
Alternate group : 1
Дата кодирования : UTC 2019-09-24 13:25:35
Дата пометки : UTC 2019-09-24 13:28:28
tagc : public.auxiliary-content

Аудио #3
Идентификатор : 4
Формат : AAC LC
Формат/Информация : Advanced Audio Codec Low Complexity
Идентификатор кодека : mp4a-40-2
Продолжительность : 1 ч. 32 м.
Вид битрейта : Переменный
Битрейт : 197 Кбит/сек
Максимальный битрейт : 282 Кбит/сек
Каналы : 2 канала
Channel layout : L R
Частота : 48,0 КГц
Частота кадров : 46,875 кадров/сек (1024 SPF)
Метод сжатия : С потерями
Размер потока : 130 Мбайт (1%)
Язык : Spanish
Default : Нет
Alternate group : 1
Дата кодирования : UTC 2019-09-24 13:25:35
Дата пометки : UTC 2019-09-24 13:28:28
tagc : public.main-program-content

Текст #1
Идентификатор : 5
Формат : Timed Text
Режим смешивания : sbtl
Идентификатор кодека : tx3g
Продолжительность : 1 ч. 28 м.
Вид битрейта : Переменный
Битрейт : 53 бит/сек
Размер потока : 34,0 Кбайт (0%)
Язык : Spanish
Default : Да
Forced : Нет
Alternate group : 2
Дата кодирования : UTC 2019-09-24 13:25:35
Дата пометки : UTC 2019-09-24 13:28:28
tagc : public.main-program-content

Текст #2
Идентификатор : 6
Формат : Timed Text
Режим смешивания : sbtl
Идентификатор кодека : tx3g
Продолжительность : 1 ч. 28 м.
Вид битрейта : Переменный
Битрейт : 43 бит/сек
Размер потока : 27,8 Кбайт (0%)
Язык : English
Default : Нет
Forced : Нет
Alternate group : 2
Дата кодирования : UTC 2019-09-24 13:25:35
Дата пометки : UTC 2019-09-24 13:28:28
tagc : public.main-program-content

Меню
Идентификатор : 7
Идентификатор кодека : text
Продолжительность : 1 ч. 32 м.
Язык : English
Дата кодирования : UTC 2019-09-24 13:28:28
Дата пометки : UTC 2019-09-24 13:28:28
Вид битрейта : CBR
Menu For : 1
00:00:00.000 : Chapter 01
00:08:49.000 : Chapter 02
00:18:21.500 : Chapter 03
00:28:31.000 : Chapter 04
00:34:46.000 : Chapter 05
00:45:05.000 : Chapter 06
00:53:32.125 : Chapter 07
01:04:26.000 : Chapter 08
01:12:36.000 : Chapter 09
01:22:34.000 : Chapter 10
01:29:28.000 : Chapter 11
Вид битрейта : Постоянный


Name: Золотые яйца
Artist: Bigas Luna
Media Kind: Movie
HD Video: 1080p
Genre: комедия, драма
Release Date: 1993-09-24T00:00:00Z
Description: Амбициозный инженер использует свое обаяние, чтобы получить деньги на реализацию проекта мечты.
Long Description: Амбициозный инженер использует свое обаяние, чтобы получить деньги на реализацию проекта мечты.
Studio: Filmauro, Hugo Films S.A., Lumière, Ovídeo TV S.A., Lolafilms
Cast: Javier Bardem, Maria de Medeiros, Maribel Verdú, Elisa Tovati, Raquel Bianca, Alessandro Gassman, Benicio del Toro, Francesco Dominedò, Ángel de Andrés López
Director: Bigas Luna
Executive Producer: Andrés Vicente Gómez
Screenwriters: Bigas Luna, Cuca Canals

Скриншоты:


Все одноименные релизы в Клубе
Время раздачи: 24/7 (до появления первых 3-5 скачавших)

Релиз подготовлен для просмотра на Apple TV, iPad, iPhone, iPod Touch.
Для просмотра данного релиза на компьютере с ОС Windows рекомендуется использовать VLC media player
[NNMClub.to]_Huevos.de.oro.1993.BDRip.1080p.m4v.torrent
 Торрент: Золотая раздача  Зарегистрирован
 
Зарегистрируйтесь и скачайте торрент!
94,6 KB

Примагнититься
 Зарегистрирован:   24 Сен 2019 16:43:15
 Размер:   9,44 GB  (
 Рейтинг:    (Голосов: 5)
 Поблагодарили:   28
 Проверка:   Оформление проверено модератором 24 Сен 2019 20:10:00
Как cкачать  ·  Как раздать  ·  Правильно оформить  ·  Поднять ратио!  

_________________
«Всё против нас, только ветер навстречу…».
🍏Apple iMac 21.5 (mid 2011) / Intel Core i5 2.7 GHz / AMD Radeon HD 6770M 512 Mb / 12GB DDR3 / Apple Trackpad, Apple Keyboard / macOS High Sierra 10.13.6 (17G8030)
Показать сообщения:   
Начать новую тему   Ответить на тему    Торрент-трекер NNM-Club -> Аудио и Видео -> Зарубежное видео HD для устройств Apple Часовой пояс: GMT + 3
Страница 1 из 1