Классический форум-трекер
canvas not supported
Нас вместе: 4 079 360

Под подозрением / Bent (2018) BDRip [1080p] ATV


 
 
RSS
Начать новую тему   Ответить на тему    Торрент-трекер NNM-Club -> Аудио и Видео -> Зарубежное видео HD для устройств Apple
Автор Сообщение
Весельчак У ®
Модератор Apple
Стаж: 5 лет 10 мес.
Сообщений: 3423
Ratio: 147,791
Поблагодарили: 112408
100%
Откуда: От Москвы недалеко...
ussr.gif
Под подозрением / Bent (2018) BDRip [1080p] ATV«Corruption has its own set of rules»
Производство: Испания, США / AMBI Group, Grindstone Entertainment Group, Primary Wave Management
Жанр: Триллер, Криминал

Режиссер: Роберт Мореско
Продюсер: Моника Бакарди, Alberto Burgueño, Андреа Иерволино
Актеры: Карл Урбан, София Вергара, Энди Гарсиа, Винсент Спано, Джон Финн, Грейс Байерс, Трэй Байерс, Тоня Корнелисс, Патрик Бреннан, Мэттью Рейнольдс

Описание:
Бывший полицейский из отдела по наркоконтролю Дэнни Галлахэр, выйдя из тюрьмы, стремится отомстить лжесвидетелю и убийце своего напарника. Нити расследования выводят Дэнни на другое загадочное убийство и масштабный государственный заговор.


Рейтинг MPAA: R (лицам до 17 лет обязательно присутствие взрослого)
Дата мировой премьеры: 9 марта 2018
Цифровой релиз: 23 сентября 2019, «НД Плэй»

Продолжительность: 01:36:31
Качество видео: BDRip 1080р
Перевод: Профессиональный многоголосый (iTunes)
Субтитры: Английские (вшитые, отключаемые)

Видео: H.264, 1920x800 (2.40:1), ~ 8742 kbps, 23.976 fps
Аудио#1: AAC, 2.0 ch, 197 Kbps - Русский MVO, iTunes
Аудио#2: AAC, 2.0 ch, 197 Kbps - English, Original
Аудио#3: AC3, 6.0 ch, 384 Kbps - Русский MVO, iTunes
Аудио#4: AC3, 6.0 ch, 640 Kbps - English, Original

Общее
Полное имя : /Volumes/HDD/Movies/NNMC/Bent.2018.BDRip.1080p.m4v
Формат : MPEG-4
Идентификатор кодека : M4V (M4V /M4A /mp42/isom)
Размер файла : 6,86 Гбайт
Продолжительность : 1 ч. 36 м.
Режим общего битрейта : Переменный
Общий поток : 10,2 Мбит/сек
Название фильма : Под подозрением
Исполнитель : Роберт Мореско
Режиссёр : Роберт Мореско
Исполнитель : Карл Урбан / София Вергара / Энди Гарсиа / Грейс Байерс / Винсент Спано
Сценарист : Роберт Мореско
Продюсер : Моника Бакарди / Alberto Burgueño / Андреа Иерволино / Даниэль Малони
Исполнительный продюсер : Luca Matrundola, David Guillod, Barry Brooker, Stan Wertlieb, Wayne Marc Godfrey, Robert Jones
Студия-производитель : AMBI Group, Deadly Codes Productions, Elipsis Capital, Fyzz Factory, The, Grindstone Entertainment Group, Groove Tails Productions, Maggie B Good Productions, Primary Wave Management, Rod Movies AIE
Жанр : Триллеры
Тип содержимого : Short Film
Описание : Закадровый перевод. Бывший полицейский из отдела по наркоконтролю Дэнни Галлахэр, выйдя из тюрьмы, стремится отомстить лжесвидетелю и убийце своего напарника. Нити расследования выводят Дэнни на другое загадочное убийство и масштабный государственный заговор.
Дата записи : UTC 2019-03-09 08:00:00
Дата кодирования : UTC 2019-09-24 18:15:14
Дата пометки : UTC 2019-09-24 18:20:28
Авторское право : © 2019 Мегофильм
Обложка : Yes
LongDescription : Закадровый перевод. Бывший полицейский из отдела по наркоконтролю Дэнни Галлахэр, выйдя из тюрьмы, стремится отомстить лжесвидетелю и убийце своего напарника. Нити расследования выводят Дэнни на другое загадочное убийство и масштабный государственный заговор.
AppleStoreCountry : Russia
AppleStoreCatalogID : 1477185184
ContentRating : ru-movie|18+|400|

Видео #1
Идентификатор : 1
Формат : AVC
Формат/Информация : Advanced Video Codec
Профиль формата : High@L4.1
Настройки формата : CABAC / 5 Ref Frames
Параметр CABAC формата : Да
Параметр ReFrames формата : 5 кадров
Идентификатор кодека : avc1
Идентификатор кодека/Информация : Advanced Video Coding
Продолжительность : 1 ч. 36 м.
Битрейт : 8742 Кбит/сек
Ширина : 1920 пикселей
Высота : 800 пикселей
Соотношение сторон : 2,40:1
Режим частоты кадров : Переменный
Частота кадров : 23,976 (24000/1001) кадра/сек
Минимальная частота кадров : 23,810 кадра/сек
Максимальная частота кадров : 24,390 кадра/сек
Цветовое пространство : YUV
Субдискретизация насыщенности : 4:2:0
Битовая глубина : 8 бит
Тип развёртки : Прогрессивная
Бит/(Пиксели*Кадры) : 0.237
Размер потока : 5,89 Гбайт (86%)
Библиотека кодирования : x264 core 155 r2867+74 66b5600 t_mod_Custom_2 [8-bit@all X86_64]
Настройки программы : cabac=1 / ref=5 / deblock=1:-3:-3 / analyse=0x3:0x133 / me=umh / subme=10 / psy=1 / fade_compensate=0.00 / psy_rd=1.00:0.00 / mixed_ref=1 / me_range=32 / chroma_me=1 / trellis=2 / 8x8dct=1 / cqm=0 / deadzone=21,11 / fast_pskip=0 / chroma_qp_offset=-2 / threads=12 / lookahead_threads=2 / sliced_threads=0 / nr=0 / decimate=0 / interlaced=0 / bluray_compat=0 / constrained_intra=0 / fgo=0 / bframes=8 / b_pyramid=2 / b_adapt=2 / b_bias=0 / direct=3 / weightb=1 / open_gop=0 / weightp=2 / keyint=250 / keyint_min=23 / scenecut=40 / intra_refresh=0 / rc_lookahead=60 / rc=crf / mbtree=0 / crf=16.9000 / qcomp=0.60 / qpmin=0:0:0 / qpmax=69:69:69 / qpstep=4 / vbv_maxrate=62500 / vbv_bufsize=78125 / crf_max=0.0 / nal_hrd=none / filler=0 / ip_ratio=1.30 / pb_ratio=1.20 / aq=3:0.80 / aq-sensitivity=10.00 / aq-factor=1.00:1.00:1.00 / aq2=0 / aq3=0
Язык : English
Дата кодирования : UTC 2019-09-24 18:15:14
Дата пометки : UTC 2019-09-24 18:20:11
Цветовой диапазон : Limited
Коэффициенты матрицы : BT.709
Menus : 7,8
Codec configuration box : avcC

Видео #2
Идентификатор : 8
Формат : JPEG
Идентификатор кодека : jpeg
Продолжительность : 1 ч. 36 м.
Вид битрейта : Переменный
Битрейт : 731 бит/сек
Ширина : 640 пикселей
Высота : 266 пикселей
Соотношение сторон : 2,40:1
Режим частоты кадров : Переменный
Частота кадров : 0,003 кадр/сек
Минимальная частота кадров : 0,002 кадр/сек
Максимальная частота кадров : 0,006 кадр/сек
Цветовое пространство : YUV
Субдискретизация насыщенности : 4:2:0
Битовая глубина : 8 бит
Метод сжатия : С потерями
Бит/(Пиксели*Кадры) : 1.431
Размер потока : 476 Кбайт (0%)
Язык : English
Default : Нет
Дата кодирования : UTC 2019-09-24 18:20:27
Дата пометки : UTC 2019-09-24 18:20:27
Menu For : 1
ColorSpace_ICC : RGB

Аудио #1
Идентификатор : 2
Формат : AAC LC
Формат/Информация : Advanced Audio Codec Low Complexity
Идентификатор кодека : mp4a-40-2
Продолжительность : 1 ч. 36 м.
Вид битрейта : Переменный
Битрейт : 197 Кбит/сек
Максимальный битрейт : 310 Кбит/сек
Каналы : 2 канала
Channel layout : L R
Частота : 48,0 КГц
Частота кадров : 46,875 кадров/сек (1024 SPF)
Метод сжатия : С потерями
Размер потока : 136 Мбайт (2%)
Язык : Russian
Default : Да
Alternate group : 1
Дата кодирования : UTC 2019-09-24 18:15:14
Дата пометки : UTC 2019-09-24 18:20:11
Fallback From : 4
tagc : public.main-program-content

Аудио #2
Идентификатор : 3
Формат : AAC LC
Формат/Информация : Advanced Audio Codec Low Complexity
Идентификатор кодека : mp4a-40-2
Продолжительность : 1 ч. 36 м.
Вид битрейта : Переменный
Битрейт : 197 Кбит/сек
Максимальный битрейт : 317 Кбит/сек
Каналы : 2 канала
Channel layout : L R
Частота : 48,0 КГц
Частота кадров : 46,875 кадров/сек (1024 SPF)
Метод сжатия : С потерями
Размер потока : 136 Мбайт (2%)
Язык : English
Default : Нет
Alternate group : 1
Дата кодирования : UTC 2019-09-24 18:15:14
Дата пометки : UTC 2019-09-24 18:20:11
Fallback From : 5
tagc : public.main-program-content

Аудио #3
Идентификатор : 4
Формат : AC-3
Формат/Информация : Audio Coding 3
Коммерческое название : Dolby Digital
Идентификатор кодека : ac-3
Продолжительность : 1 ч. 36 м.
Вид битрейта : Постоянный
Битрейт : 384 Кбит/сек
Каналы : 6 каналов
Channel layout : L R C LFE Ls Rs
Частота : 48,0 КГц
Частота кадров : 31,250 кадров/сек (1536 SPF)
Битовая глубина : 16 бит
Метод сжатия : С потерями
Размер потока : 265 Мбайт (4%)
Язык : Russian
Service kind : Complete Main
Default : Inherited From: 2
Alternate group : 1
Дата кодирования : UTC 2019-09-24 18:15:14
Дата пометки : UTC 2019-09-24 18:20:11
Fallback To : 2
tagc : public.main-program-content

Аудио #4
Идентификатор : 5
Формат : AC-3
Формат/Информация : Audio Coding 3
Коммерческое название : Dolby Digital
Идентификатор кодека : ac-3
Продолжительность : 1 ч. 36 м.
Вид битрейта : Постоянный
Битрейт : 640 Кбит/сек
Каналы : 6 каналов
Channel layout : L R C LFE Ls Rs
Частота : 48,0 КГц
Частота кадров : 31,250 кадров/сек (1536 SPF)
Битовая глубина : 16 бит
Метод сжатия : С потерями
Размер потока : 442 Мбайт (6%)
Язык : English
Service kind : Complete Main
Default : Нет
Alternate group : 1
Дата кодирования : UTC 2019-09-24 18:15:14
Дата пометки : UTC 2019-09-24 18:20:11
Fallback To : 3
tagc : public.main-program-content

Текст
Идентификатор : 6
Формат : Timed Text
Режим смешивания : sbtl
Идентификатор кодека : tx3g
Продолжительность : 1 ч. 28 м.
Вид битрейта : Переменный
Битрейт : 60 бит/сек
Размер потока : 39,3 Кбайт (0%)
Язык : English
Default : Да
Forced : Нет
Alternate group : 2
Дата кодирования : UTC 2019-09-24 18:15:14
Дата пометки : UTC 2019-09-24 18:20:11
tagc : public.main-program-content

Меню
Идентификатор : 7
Идентификатор кодека : text
Продолжительность : 1 ч. 36 м.
Язык : English
Дата кодирования : UTC 2019-09-24 18:20:11
Дата пометки : UTC 2019-09-24 18:20:11
Вид битрейта : CBR
Menu For : 1
00:00:00.000 : 00:00:00.000
00:03:47.894 : 00:03:47.894
00:10:50.275 : 00:10:50.275
00:18:16.429 : 00:18:16.429
00:24:26.506 : 00:24:26.507
00:30:25.032 : 00:30:25.032
00:37:36.337 : 00:37:36.337
00:40:25.632 : 00:40:25.632
00:47:53.287 : 00:47:53.287
00:55:57.854 : 00:55:57.854
00:59:05.208 : 00:59:05.208
01:05:16.412 : 01:05:16.412
01:11:50.806 : 01:11:50.806
01:18:28.913 : 01:18:28.913
01:23:48.982 : 01:23:48.982
01:29:21.481 : 01:29:21.481
Вид битрейта : Постоянный


Name: Под подозрением
Artist: Роберт Мореско
Media Kind: Movie
HD Video: 1080p
Genre: Триллеры
Release Date: 2019-03-09T08:00:00Z
Description: Закадровый перевод. Бывший полицейский из отдела по наркоконтролю Дэнни Галлахэр, выйдя из тюрьмы, стремится отомстить лжесвидетелю и убийце своего напарника. Нити расследования выводят Дэнни на другое загадочное убийство и масштабный государственный заговор.
Long Description: Закадровый перевод. Бывший полицейский из отдела по наркоконтролю Дэнни Галлахэр, выйдя из тюрьмы, стремится отомстить лжесвидетелю и убийце своего напарника. Нити расследования выводят Дэнни на другое загадочное убийство и масштабный государственный заговор.
Rating: ru-movie|18+|400|
Studio: AMBI Group, Deadly Codes Productions, Elipsis Capital, Fyzz Factory, The, Grindstone Entertainment Group, Groove Tails Productions, Maggie B Good Productions, Primary Wave Management, Rod Movies AIE
Cast: Карл Урбан, София Вергара, Энди Гарсиа, Грейс Байерс, Винсент Спано
Director: Роберт Мореско
Producers: Моника Бакарди, Alberto Burgueño, Андреа Иерволино, Даниэль Малони
Executive Producer: Luca Matrundola, David Guillod, Barry Brooker, Stan Wertlieb, Wayne Marc Godfrey, Robert Jones
Screenwriters: Роберт Мореско
Copyright: © 2019 Мегофильм
content ID: 1477185184
iTunes Country: 143469

Скриншоты:


Все одноименные релизы в Клубе
Время раздачи: 24/7 (до появления первых 3-5 скачавших)

Релиз подготовлен для просмотра на Apple TV, iPad, iPhone, iPod Touch.
Для просмотра данного релиза на компьютере с ОС Windows рекомендуется использовать VLC media player
[NNMClub.to]_Bent.2018.BDRip.1080p.m4v.torrent
 Торрент:   Зарегистрирован
 
Зарегистрируйтесь и скачайте торрент!
68,8 KB

Примагнититься
 Зарегистрирован:   24 Сен 2019 21:26:27
 Размер:   6,86 GB  (
 Рейтинг:    (Голосов: 6)
 Поблагодарили:   52
 Проверка:   Оформление проверено модератором 24 Сен 2019 23:13:37
Как cкачать  ·  Как раздать  ·  Правильно оформить  ·  Поднять ратио!  

_________________
«Всё против нас, только ветер навстречу…».
🍏Apple iMac 21.5 (mid 2011) / Intel Core i5 2.7 GHz / AMD Radeon HD 6770M 512 Mb / 12GB DDR3 / Apple Trackpad, Apple Keyboard / macOS High Sierra 10.13.6 (17G8030)
cidcr
Стаж: 7 лет 2 мес.
Сообщений: 146
Ratio: 1,763
100%
Кинуха для регулярно обкуривающихся американцев среднего класса. Умная голова не воспримет всерьёз.
Показать сообщения:   
Начать новую тему   Ответить на тему    Торрент-трекер NNM-Club -> Аудио и Видео -> Зарубежное видео HD для устройств Apple Часовой пояс: GMT + 3
Страница 1 из 1