Классический форум-трекер
canvas not supported
Нас вместе: 4 079 360

Час волка / The Wolf Hour (2019) WEB-DL [1080p] ATV (AVO)


 
 
RSS
Начать новую тему   Ответить на тему    Торрент-трекер NNM-Club -> Аудио и Видео -> Зарубежное видео HD для устройств Apple
Автор Сообщение
Весельчак У ®
Модератор Apple
Стаж: 5 лет 10 мес.
Сообщений: 3423
Ratio: 147,791
Поблагодарили: 112406
100%
Откуда: От Москвы недалеко...
ussr.gif
Час волка / The Wolf Hour (2019) WEB-DL [1080p] ATV

Производство: США / Automatik, Bradley Pilz Productions, HanWay Films
Жанр: Триллер, Драма, Детектив

Режиссер: Алистэр Бэнкс Гриффин
Продюсер: Бэйли Конуэй, Брайан Кэвэна-Джонс, Фред Бергер
Актеры: Наоми Уоттс, Дженнифер Или, Эмори Коэн, Джереми Бобб, Бреннан Браун, Келвин Харрисон, Марица Веер, Педро Халливуд, Джастин Кларк, Энджел Кристиан Роман

Описание:
После трагических событий, связанных с последней книгой, Джун Ли - известная писательница и лидер антиэлитарного движения США добровольно становится затворницей в своей квартире в Южном Бронксе. На несколько лет она выпадает из новостной повестки и ведёт такую не слишком радостную жизнь, всячески стараясь изолироваться от окружающих. А за её окнами разворачиваются пугающие и невесёлые события. Жаркое лето 1977 года становится таким не только из-за температуры. Страсти в городе накаляются и кажется вот-вот вспыхнет пожар массовых беспорядков.


Рейтинг MPAA: R (лицам до 17 лет обязательно присутствие взрослого)
Дата мировой премьеры: 26 января 2019
Релиз от: BadBajo

Продолжительность: 01:39:19
Качество видео: WEB-DL 1080р
Перевод: Авторский одноголосый (BadBajo)
Субтитры: Английские (вшитые, отключаемые)

Видео: H.264, 1906x798 (2.40:1), ~4619 kbps, 23.976 fps
Аудио#1: AAC, 2.0 ch, 192 Kbps - Русский AVO, BadBajo
Аудио#2: AAC, 2.0 ch, 192 Kbps - English, Original
Аудио#3: AC3, 6.0 ch, 384 Kbps - Русский AVO, BadBajo
Аудио#4: AC3, 6.0 ch, 384 Kbps - English, Original

Общее
Полное имя : /Volumes/HDD/Movies/NNMC/The.Wolf.Hour.2019.WEB-DL.1080p.m4v
Формат : MPEG-4
Идентификатор кодека : M4V (M4V /M4A /mp42/isom)
Размер файла : 4,01 Гбайт
Продолжительность : 1 ч. 39 м.
Режим общего битрейта : Переменный
Общий поток : 5784 Кбит/сек
Название фильма : Час волка
Исполнитель : Alistair Banks Griffin
Композитор : Danny Bensi, Saunder Jurriaans
Режиссёр : Alistair Banks Griffin
Исполнитель : Naomi Watts / Emory Cohen / Jennifer Ehle / Kelvin Harrison Jr. / Jeremy Bobb / Brennan Brown / Justin Clarke / Maritza Veer / Ohene Cornelius / Pedro Hollywood / Angel Christian Roman / Richard Bird / Sean Pilz / John Palacio
Сценарист : Alistair Banks Griffin
Продюсер : Brian Kavanaugh-Jones / Bailey Conway / Bradley Pilz
Студия-производитель : Bradley Pilz Productions, Automatik Entertainment, HanWay Films
Жанр : триллер, драма, детектив
Тип содержимого : Short Film
Описание : После трагических событий, связанных с последней книгой, Джун Ли - известная писательница и лидер антиэлитарного движения США добровольно становится затворницей в своей квартире в Южном Бронксе. На несколько лет она выпадает из новостной повестки и…
Дата записи : UTC 2019-01-26 00:00:00
Дата кодирования : UTC 2019-09-25 16:05:10
Дата пометки : UTC 2019-09-25 16:07:50
Обложка : Yes
LongDescription : После трагических событий, связанных с последней книгой, Джун Ли - известная писательница и лидер антиэлитарного движения США добровольно становится затворницей в своей квартире в Южном Бронксе. На несколько лет она выпадает из новостной повестки и ведёт такую не слишком радостную жизнь, всячески стараясь изолироваться от окружающих. А за её окнами разворачиваются пугающие и невесёлые события. Жаркое лето 1977 года становится таким не только из-за температуры. Страсти в городе накаляются и кажется вот-вот вспыхнет пожар массовых беспорядков.
ContentRating : mpaa|Unrated|???|

Видео #1
Идентификатор : 1
Формат : AVC
Формат/Информация : Advanced Video Codec
Профиль формата : High@L4
Настройки формата : CABAC / 5 Ref Frames
Параметр CABAC формата : Да
Параметр ReFrames формата : 5 кадров
Идентификатор кодека : avc1
Идентификатор кодека/Информация : Advanced Video Coding
Продолжительность : 1 ч. 39 м.
Битрейт : 4619 Кбит/сек
Ширина : 1906 пикселей
Высота : 798 пикселей
Соотношение сторон : 2,40:1
Частота кадров : 23,976 кадра/сек
Цветовое пространство : YUV
Субдискретизация насыщенности : 4:2:0
Битовая глубина : 8 бит
Тип развёртки : Прогрессивная
Бит/(Пиксели*Кадры) : 0.127
Размер потока : 3,20 Гбайт (80%)
Язык : English
Дата кодирования : UTC 2019-09-25 16:05:11
Дата пометки : UTC 2019-09-25 16:07:41
Цветовой диапазон : Limited
Основные цвета : BT.709
Характеристики трансфера : BT.709
Коэффициенты матрицы : BT.709
Menus : 7,8
Codec configuration box : avcC

Видео #2
Идентификатор : 8
Формат : JPEG
Идентификатор кодека : jpeg
Продолжительность : 1 ч. 39 м.
Вид битрейта : Переменный
Битрейт : 551 бит/сек
Ширина : 640 пикселей
Высота : 267 пикселей
Соотношение сторон : 2,40:1
Режим частоты кадров : Переменный
Частота кадров : 0,003 кадр/сек
Минимальная частота кадров : 0,002 кадр/сек
Максимальная частота кадров : 0,004 кадр/сек
Цветовое пространство : YUV
Субдискретизация насыщенности : 4:2:0
Битовая глубина : 8 бит
Метод сжатия : С потерями
Бит/(Пиксели*Кадры) : 1.075
Размер потока : 381 Кбайт (0%)
Язык : English
Default : Нет
Дата кодирования : UTC 2019-09-25 16:07:50
Дата пометки : UTC 2019-09-25 16:07:50
Menu For : 1
ColorSpace_ICC : RGB

Аудио #1
Идентификатор : 2
Формат : AAC LC
Формат/Информация : Advanced Audio Codec Low Complexity
Идентификатор кодека : mp4a-40-2
Продолжительность : 1 ч. 39 м.
Вид битрейта : Переменный
Битрейт : 192 Кбит/сек
Максимальный битрейт : 320 Кбит/сек
Каналы : 2 канала
Channel layout : L R
Частота : 48,0 КГц
Частота кадров : 46,875 кадров/сек (1024 SPF)
Метод сжатия : С потерями
Размер потока : 137 Мбайт (3%)
Язык : Russian
Default : Да
Alternate group : 1
Дата кодирования : UTC 2019-09-25 16:05:11
Дата пометки : UTC 2019-09-25 16:07:41
Fallback From : 4
tagc : public.main-program-content

Аудио #2
Идентификатор : 3
Формат : AAC LC
Формат/Информация : Advanced Audio Codec Low Complexity
Идентификатор кодека : mp4a-40-2
Продолжительность : 1 ч. 39 м.
Вид битрейта : Переменный
Битрейт : 192 Кбит/сек
Максимальный битрейт : 313 Кбит/сек
Каналы : 2 канала
Channel layout : L R
Частота : 48,0 КГц
Частота кадров : 46,875 кадров/сек (1024 SPF)
Метод сжатия : С потерями
Размер потока : 138 Мбайт (3%)
Язык : English
Default : Нет
Alternate group : 1
Дата кодирования : UTC 2019-09-25 16:05:11
Дата пометки : UTC 2019-09-25 16:07:41
Fallback From : 5
tagc : public.main-program-content

Аудио #3
Идентификатор : 4
Формат : AC-3
Формат/Информация : Audio Coding 3
Коммерческое название : Dolby Digital
Идентификатор кодека : ac-3
Продолжительность : 1 ч. 39 м.
Вид битрейта : Постоянный
Битрейт : 384 Кбит/сек
Каналы : 6 каналов
Channel layout : L R C LFE Ls Rs
Частота : 48,0 КГц
Частота кадров : 31,250 кадров/сек (1536 SPF)
Битовая глубина : 16 бит
Метод сжатия : С потерями
Размер потока : 273 Мбайт (7%)
Язык : Russian
Service kind : Complete Main
Default : Inherited From: 2
Alternate group : 1
Дата кодирования : UTC 2019-09-25 16:05:11
Дата пометки : UTC 2019-09-25 16:07:41
Fallback To : 2
tagc : public.main-program-content

Аудио #4
Идентификатор : 5
Формат : AC-3
Формат/Информация : Audio Coding 3
Коммерческое название : Dolby Digital
Идентификатор кодека : ac-3
Продолжительность : 1 ч. 39 м.
Вид битрейта : Постоянный
Битрейт : 384 Кбит/сек
Каналы : 6 каналов
Channel layout : L R C LFE Ls Rs
Частота : 48,0 КГц
Частота кадров : 31,250 кадров/сек (1536 SPF)
Битовая глубина : 16 бит
Метод сжатия : С потерями
Размер потока : 273 Мбайт (7%)
Язык : English
Service kind : Complete Main
Default : Нет
Alternate group : 1
Дата кодирования : UTC 2019-09-25 16:05:11
Дата пометки : UTC 2019-09-25 16:07:41
Fallback To : 3
tagc : public.main-program-content

Текст
Идентификатор : 6
Формат : Timed Text
Режим смешивания : sbtl
Идентификатор кодека : tx3g
Продолжительность : 1 ч. 33 м.
Вид битрейта : Переменный
Битрейт : 38 бит/сек
Размер потока : 26,4 Кбайт (0%)
Язык : English
Default : Да
Forced : Нет
Alternate group : 2
Дата кодирования : UTC 2019-09-25 16:05:11
Дата пометки : UTC 2019-09-25 16:07:41
tagc : public.main-program-content

Меню
Идентификатор : 7
Идентификатор кодека : text
Продолжительность : 1 ч. 39 м.
Язык : English
Дата кодирования : UTC 2019-09-25 16:07:42
Дата пометки : UTC 2019-09-25 16:07:42
Menu For : 1
00:00:00.000 : 1
00:07:05.675 : 2
00:15:05.696 : 3
00:20:00.657 : 4
00:25:03.709 : 5
00:32:58.642 : 6
00:38:19.587 : 7
00:43:26.976 : 8
00:48:45.836 : 9
00:55:21.189 : 10
01:00:16.192 : 11
01:05:55.405 : 12
01:10:35.017 : 13
01:15:53.585 : 14
01:21:27.126 : 15
01:27:33.492 : 16
01:31:46.578 : 17


Name: Час волка
Artist: Alistair Banks Griffin
Media Kind: Movie
HD Video: 1080p
Genre: триллер, драма, детектив
Release Date: 2019-01-26T00:00:00Z
Description: После трагических событий, связанных с последней книгой, Джун Ли - известная писательница и лидер антиэлитарного движения США добровольно становится затворницей в своей квартире в Южном Бронксе. На несколько лет она выпадает из новостной повестки и…
Long Description: После трагических событий, связанных с последней книгой, Джун Ли - известная писательница и лидер антиэлитарного движения США добровольно становится затворницей в своей квартире в Южном Бронксе. На несколько лет она выпадает из новостной повестки и ведёт такую не слишком радостную жизнь, всячески стараясь изолироваться от окружающих. А за её окнами разворачиваются пугающие и невесёлые события. Жаркое лето 1977 года становится таким не только из-за температуры. Страсти в городе накаляются и кажется вот-вот вспыхнет пожар массовых беспорядков.
Rating: mpaa|Unrated|???|
Studio: Bradley Pilz Productions, Automatik Entertainment, HanWay Films
Cast: Naomi Watts, Emory Cohen, Jennifer Ehle, Kelvin Harrison Jr., Jeremy Bobb, Brennan Brown, Justin Clarke, Maritza Veer, Ohene Cornelius, Pedro Hollywood, Angel Christian Roman, Richard Bird, Sean Pilz, John Palacio
Director: Alistair Banks Griffin
Producers: Brian Kavanaugh-Jones, Bailey Conway, Bradley Pilz
Screenwriters: Alistair Banks Griffin
Composer: Danny Bensi, Saunder Jurriaans

Скриншоты:


Все одноименные релизы в Клубе
Время раздачи: 24/7 (до появления первых 3-5 скачавших)

Релиз подготовлен для просмотра на Apple TV, iPad, iPhone, iPod Touch.
Для просмотра данного релиза на компьютере с ОС Windows рекомендуется использовать VLC media player
[NNMClub.to]_The.Wolf.Hour.2019.WEB-DL.1080p.m4v.torrent
 Торрент: Платиновая раздача  Зарегистрирован
 
Скачать


Примагнититься
 Зарегистрирован:   25 Сен 2019 19:33:55
 Размер:   4,01 GB  (
 Рейтинг:    (Голосов: 6)
 Поблагодарили:   50
 Проверка:   Оформление проверено модератором 25 Сен 2019 20:18:47
Как cкачать  ·  Как раздать  ·  Правильно оформить  ·  Поднять ратио!  

_________________
«Всё против нас, только ветер навстречу…».
🍏Apple iMac 21.5 (mid 2011) / Intel Core i5 2.7 GHz / AMD Radeon HD 6770M 512 Mb / 12GB DDR3 / Apple Trackpad, Apple Keyboard / macOS High Sierra 10.13.6 (17G8030)
Показать сообщения:   
Начать новую тему   Ответить на тему    Торрент-трекер NNM-Club -> Аудио и Видео -> Зарубежное видео HD для устройств Apple Часовой пояс: GMT + 3
Страница 1 из 1